Torrent Details For "Game.of.Thrones.S07E02.1080p.WEB.h264-TBS"

Warning! Use a VPN When Downloading Torrents!
Your IP Address is . Location is
Your Internet Provider is tracking your torrent activity! Hide your IP ADDRESS with a VPN!
We strongly recommend using Trust.Zone VPN to anonymize your torrenting. It's FREE!
Get VPN Now for FREE!
Game.of.Thrones.S07E02.1080p.WEB.h264-TBS



Title: Game.of.Thrones.S07E02.1080p.WEB.h264-TBS
Category: TV > HD
Uploader:

Uploaded by PiNKMAN*10462

Seeders: 32729
Leechers: 23883
Completed: 429208
Downloaded: 70
Size: 1.54 GB
Language: English English
Game.of.Thrones.S07E02.1080p.WEB.h264-TBS



Complete name                            : game.of.thrones.s07e02.1080p.web.h264-tbs.mkv
Format                                   : Matroska
Format version                           : Version 4 / Version 2
File size                                : 1.54 GiB
Duration                                 : 59 min 15 s
Overall bit rate mode                    : Variable
Overall bit rate                         : 3 727 kb/s
Encoded date                             : UTC 2017-07-24 01:21:58
Writing application                      : mkvmerge v8.8.0 ('Wind at my back') 64bit
Writing library                          : libebml v1.3.3 + libmatroska v1.4.4 / Lavf57.25.100

Video
ID                                       : 1
Format                                   : AVC
Format/Info                              : Advanced Video Codec
Format profile                           : [email protected]
Format settings, CABAC                   : Yes
Format settings, ReFrames                : 4 frames
Codec ID                                 : V_MPEG4/ISO/AVC
Duration                                 : 59 min 15 s
Bit rate mode                            : Variable
Bit rate                                 : 3 536 kb/s
Maximum bit rate                         : 4 510 kb/s
Width                                    : 1 920 pixels
Height                                   : 1 080 pixels
Display aspect ratio                     : 16:9
Frame rate mode                          : Constant
Frame rate                               : 23.976 (24000/1001) FPS
Color space                              : YUV
Chroma subsampling                       : 4:2:0
Bit depth                                : 8 bits
Scan type                                : Progressive
Bits/(Pixel*Frame)                       : 0.071
Stream size                              : 1.46 GiB (95%)
Default                                  : Yes
Forced                                   : No

Audio
ID                                       : 2
Format                                   : AAC
Format/Info                              : Advanced Audio Codec
Format profile                           : LC
Codec ID                                 : A_AAC
Duration                                 : 59 min 15 s
Bit rate                                 : 192 kb/s
Channel(s)                               : 2 channels
Channel positions                        : Front: L R
Sampling rate                            : 48.0 kHz
Frame rate                               : 46.875 FPS (1024 spf)
Compression mode                         : Lossy
Delay relative to video                  : -41 ms
Stream size                              : 80.3 MiB (5%)
Default                                  : Yes
Forced                                   : No






Click To View Screenshot

Click To View Screenshot

Click To View Screenshot
File Name: Size:
game.of.thrones.s07e02.1080p.web.h264-tbs.mkv1.54 GB
game.of.thrones.s07e02.1080p.web.x264-tbs.nfo52.00 B
TrackersSeedersLeechersCompleted
udp://tracker.coppersurfer.tk:6969/announce32,72923,883429,208
Torrent Hash: F3F6846A99A9DCEE9A96D001D504836F97473130
Not Yet Rated (Log in to rate it)
No comments still posted

Related Torrents

Torrents NameSizeSLAge
Game.of.Thrones.S07E06.1080p.HDTV.x264.AC3-Manning
       0


by PiNKMAN in TV > HD
2.19 GB 0 0 1 day ago
Game.of.Thrones.S07E06.720p.HDTV.x264.AC3-Manning[ettv]
       1


by EtHD in TV > SD x264 x265
1.83 GB 4,372 1,197 1 day ago
Game.of.Thrones.S07.E06.720p.Leaked[ettv]
       0


by EtHD in TV > SD x264 x265
1.05 GB 2,628 6,146 1 day ago
Game.of.Thrones.S07E06.HDTV.x264.AC3-Manning[ettv]
       0


by ettv in TV > SD x264 x265
1.01 GB 2,668 7,900 1 day ago
Game.of.Thrones.S07E06.1080p.HDTV.LEAKED-SiT[ettv]
       1


by EtHD in TV > SD x264 x265
1.92 GB 3,686 7,442 1 day ago

Embed & Sharing


Login
Email:
Password:
[Signup]
[Recover Account]

Latest Forum

Author : MattCoburn
Subject :I'm Back!!!!!!
Last Replies :  Ravendonated
On : 2017-08-18 10:02:49

Author : Midnight Rider
Subject :How To Become Elite Uploader/A...
Last Replies :  Deep61
On : 2017-08-18 09:45:10

Author : Angelina
Subject :Quote of The Day
Last Replies :  Jazzy
On : 2017-08-18 09:16:47

Author : miok
Subject :Tell Us The News
Last Replies :  Jazzy
On : 2017-08-18 08:59:27

Author : Chelsea
Subject :Nemesis43 - Master List
Last Replies :  Chelsea
On : 2017-08-18 08:51:59

Author : superiorSilicon
Subject :A Comprehensive Guide To Fact-...
Last Replies :  Chelsea
On : 2017-08-18 08:44:12

Author : superiorSilicon
Subject :superiorSilicon's Userstyles &...
Last Replies :  superiorSilicon
On : 2017-08-18 08:14:19

Author : Mr. Smith
Subject :Dutch/Belgium Community!
Last Replies :  Rob.Otje
On : 2017-08-18 08:11:43

Author : Chelsea
Subject :"Say Hello & Goodbye" V2
Last Replies :  zeke23
On : 2017-08-18 08:06:40

Author : RonthePirate
Subject :What is your favorite sport?
Last Replies :  AlanScott606
On : 2017-08-18 08:01:52

Author : RiverCoyote
Subject :Native Meditations
Last Replies :  zeke23
On : 2017-08-18 07:58:54


Navigation


Blog

News

WWT Official Desk Top Background Version 3
Posted: 11-Aug-17

The Privateer Vol 01 issue 04
Posted: 10-Aug-17

WWT News And Updates Aug 2017
Posted: 30-Jul-17

WWT News and Updates July 2017
Posted: 02-Jul-17


Friendly Site