Torrent Details For "The.Mummy.2017.1080p.HC.HDRip.X264.AC3-EVO"

Warning! Use a VPN When Downloading Torrents!
Your IP Address is . Location is
Your Internet Provider is tracking your torrent activity! Hide your IP ADDRESS with a VPN!
We strongly recommend using Trust.Zone VPN to anonymize your torrenting. It's FREE!
Get VPN Now for FREE!
The.Mummy.2017.1080p.HC.HDRip.X264.AC3-EVO



Title: The.Mummy.2017.1080p.HC.HDRip.X264.AC3-EVO
Category: Movies > Highres Movies
Uploader:

Uploaded by PiNKMAN*10586

Seeders: 24025
Leechers: 12972
Completed: 1127273
Downloaded: 241
Size: 4.04 GB
Language: English English
The.Mummy.2017.1080p.HC.HDRip.X264.AC3-EVO

ImDb: http://www.imdb.com/title/tt2345759



Complete name                            : The.Mummy.2017.1080p.HC.HDRip.X264.AC3-EVO.mkv
Format                                   : Matroska
Format version                           : Version 4 / Version 2
File size                                : 4.04 GiB
Duration                                 : 1 h 50 min
Overall bit rate                         : 5 247 kb/s
Movie name                               : EVO
Encoded date                             : UTC 2017-07-10 20:33:53
Writing application                      : mkvmerge v6.7.0 ('Back to the Ground') 64bit built on Jan  8 2014 15:10:52
Writing library                          : libebml v1.3.0 + libmatroska v1.4.1

Video
ID                                       : 1
Format                                   : AVC
Format/Info                              : Advanced Video Codec
Format profile                           : [email protected]
Format settings, CABAC                   : Yes
Format settings, ReFrames                : 4 frames
Codec ID                                 : V_MPEG4/ISO/AVC
Duration                                 : 1 h 50 min
Bit rate                                 : 5 107 kb/s
Width                                    : 1 920 pixels
Height                                   : 800 pixels
Display aspect ratio                     : 2.40:1
Frame rate mode                          : Constant
Frame rate                               : 30.000 FPS
Color space                              : YUV
Chroma subsampling                       : 4:2:0
Bit depth                                : 8 bits
Scan type                                : Progressive
Bits/(Pixel*Frame)                       : 0.111
Stream size                              : 3.82 GiB (94%)
Writing library                          : x264 core 142 r2479 dd79a61
Encoding settings                        : cabac=1 / ref=1 / deblock=1:0:0 / analyse=0x3:0x113 / me=hex / subme=2 / psy=1 / psy_rd=1.00:0.00 / mixed_ref=0 / me_range=16 / chroma_me=1 / trellis=0 / 8x8dct=1 / cqm=0 / deadzone=21,11 / fast_pskip=1 / chroma_qp_offset=0 / threads=12 / lookahead_threads=4 / sliced_threads=0 / nr=0 / decimate=1 / interlaced=0 / bluray_compat=0 / constrained_intra=0 / bframes=3 / b_pyramid=2 / b_adapt=1 / b_bias=0 / direct=1 / weightb=1 / open_gop=0 / weightp=1 / keyint=300 / keyint_min=30 / scenecut=40 / intra_refresh=0 / rc_lookahead=10 / rc=abr / mbtree=1 / bitrate=5107 / ratetol=1.0 / qcomp=0.60 / qpmin=0 / qpmax=69 / qpstep=4 / vbv_maxrate=62500 / vbv_bufsize=78125 / nal_hrd=none / filler=0 / ip_ratio=1.40 / aq=1:1.00
Default                                  : Yes
Forced                                   : No
Color range                              : Limited
Color primaries                          : BT.709
Transfer characteristics                 : BT.709
Matrix coefficients                      : BT.709

Audio
ID                                       : 2
Format                                   : AC-3
Format/Info                              : Audio Coding 3
Format settings, Endianness              : Big
Codec ID                                 : A_AC3
Duration                                 : 1 h 50 min
Bit rate mode                            : Constant
Bit rate                                 : 192 kb/s
Channel(s)                               : 2 channels
Channel positions                        : Front: L R
Sampling rate                            : 48.0 kHz
Frame rate                               : 31.250 FPS (1536 spf)
Bit depth                                : 16 bits
Compression mode                         : Lossy
Delay relative to video                  : -5 ms
Stream size                              : 152 MiB (4%)
Title                                    : Stereo
Language                                 : English
Service kind                             : Complete Main
Default                                  : Yes
Forced                                   : No






Click To View Screenshot

Click To View Screenshot

Click To View Screenshot
File Name: Size:
The.Mummy.2017.1080p.HC.HDRip.X264.AC3-EVO.mkv4.04 GB
The.Mummy.2017.1080p.HC.HDRip.X264.AC3-EVO.nfo736.00 B
TrackersSeedersLeechersCompleted
udp://tracker.coppersurfer.tk:6969/announce24,02512,9721,127,273
Torrent Hash: C42247F6E1C27FAA39AFD06C4EED1BC7D30AF91D
Not Yet Rated (Log in to rate it)
Posted: 14-07-2017 at 13:39:42
miok
Super Mod


Thanks PiNKMAN


Related Torrents

Torrents NameSizeSLAge
The.Monster.Project.2017.1080p.WEB-DL.DD5.1.H264-FGT[EtHD]
       0


by EtHD in Movies > Highres Movies
3.68 GB 324 110 1 day ago
The.Monster.Project.2017.HDRip.XviD.AC3-EVO
       0


by PiNKMAN in Movies > Xvid/Divx
1.34 GB 0 0 2 days ago
The.Mummy.2017.1080p.BluRay.x264-STARK [iFT]
       0


by foxm in Movies > Highres Movies
9.28 GB 272 119 2 wks ago
The.Mummy.2017.720p.BluRay.x264-STARK [iFT]
       0


by foxm in Movies > Highres Movies
4.85 GB 193 117 2 wks ago
The.Man.in.the.Moon.1991.iNTERNAL.BDRip.x264-LiBRARiANS
       0


by PiNKMAN in Movies > Web rip, x264, x265
1.09 GB 5 8 2 wks ago

Embed & Sharing


Login
Email:
Password:
[Signup]
[Recover Account]

Latest Forum

Author : jammie63
Subject :A-Z Of Football Teams
Last Replies :  Chelsea
On : 2017-08-20 13:24:53

Author : cRAYz
Subject :Keep A Word- Drop A Word Game
Last Replies :  jammie63
On : 2017-08-20 13:23:55

Author : Mafketel
Subject :Answer with a gif or meme game
Last Replies :  Chelsea
On : 2017-08-20 13:23:32

Author : Deep61
Subject :Last Letter Game V4
Last Replies :  Chelsea
On : 2017-08-20 13:20:36

Author : miok
Subject :Two Word Game V2
Last Replies :  Chelsea
On : 2017-08-20 13:16:40

Author : cRAYz
Subject :A-Z Words Ending in "LY"
Last Replies :  jammie63
On : 2017-08-20 13:16:40

Author : Chelsea
Subject :A-Z Words Ending in ST
Last Replies :  Chelsea
On : 2017-08-20 12:53:15

Author : cRAYz
Subject :Count Word Game V2
Last Replies :  Chelsea
On : 2017-08-20 12:45:46

Author : Oss
Subject :Post a word that ends with "in...
Last Replies :  Chelsea
On : 2017-08-20 12:45:03

Author : cRAYz
Subject :A-Z Words Ending in "TIVE"
Last Replies :  Chelsea
On : 2017-08-20 12:43:56

Author : cRAYz
Subject :Alphabetical Food Game
Last Replies :  Chelsea
On : 2017-08-20 12:42:56


Navigation


Blog

News

WWT Screensaver I Want You
Posted: 19-Aug-17

WWT Official Desk Top Background Version 3
Posted: 11-Aug-17

The Privateer Vol 01 issue 04
Posted: 10-Aug-17

WWT News And Updates Aug 2017
Posted: 30-Jul-17

WWT News and Updates July 2017
Posted: 02-Jul-17


Friendly Site