Torrent Details For "Baywatch 2017 UNCENSORED HD-TS x264-P2P"

Warning! Use a VPN When Downloading Torrents!
Your IP Address is . Location is
Your Internet Provider is tracking your torrent activity! Hide your IP ADDRESS with a VPN!
We strongly recommend using Trust.Zone VPN to anonymize your torrenting. It's FREE!
Get VPN Now for FREE!
Baywatch 2017 UNCENSORED HD-TS x264-P2P



Title: Baywatch 2017 UNCENSORED HD-TS x264-P2P
Category: Movies > TS/Cam Rip
Uploader:

Uploaded by Silmarillion*1247

Seeders: 19787
Leechers: 5335
Completed: 638144
Downloaded: 999
Size: 1.74 GB
Language: English English
IMDB: tt1469304


http://www.imdb.com/title/tt1469304/

Devoted lifeguard Mitch Buchannon butts heads with a brash new recruit, as they uncover a criminal plot that threatens the future of the bay.
Director: Seth Gordon
Writers: Michael Berk (based on the series "Baywatch" created by), Douglas Schwartz (based on the series "Baywatch" created by)
Stars: Dwayne Johnson, Zac Efron, Alexandra Daddario
Genres: Action | Comedy | Drama
Country: USA

Baywatch 2017 UNCENSORED HD-TS x264-P2P

iNFORMATION:

Note: Full Movie UNCENSORED

Format                      : Matroska
File size                   : 1.72 GiB
Duration                    : 1 h 47 min
Overall bit rate mode       : Variable
Overall bit rate            : 2 288 kb/s

Video
ID                          : 1
Format                      : AVC
Format/Info                 : Advanced Video Codec
Format profile              : [email protected]
Format settings, CABAC      : Yes
Format settings, ReFrames   : 4 frames
Codec ID                    : V_MPEG4/ISO/AVC
Duration                    : 1 h 47 min
Bit rate mode               : Variable
Bit rate                    : 2 100 kb/s
Maximum bit rate            : 62.5 Mb/s
Width                       : 640 pixels
Height                      : 272 pixels
Display aspect ratio        : 2.35:1
Frame rate mode             : Constant
Frame rate                  : 30.000 FPS
Color space                 : YUV
Chroma subsampling          : 4:2:0
Bit depth                   : 8 bits
Scan type                   : Progressive
Bits/(Pixel*Frame)          : 0.402
Stream size                 : 1.57 GiB (92%)

Audio
ID                          : 2
Format                      : MPEG Audio
Format version              : Version 1
Format profile              : Layer 3
Codec ID                    : A_MPEG/L3
Codec ID/Hint               : MP3
Duration                    : 1 h 47 min
Bit rate mode               : Constant
Bit rate                    : 192 kb/s
Channel(s)                  : 2 channels
Sampling rate               : 44.1 kHz
Frame rate                  : 38.281 FPS (1152 spf)
Compression mode            : Lossy
Delay relative to video     : 7 ms
Stream size                 : 148 MiB (8%)
Writing library             : LAME3.99.5
Default                     : Yes
Forced                      : No

File Name: Size:
Baywatch.2017.TS.mkv1.72 GB
Sample.mkv15.73 MB
Baywatch
Title: Baywatch
Rated: 6 by 1028 People.
A.K.A : Baywatch
Released: 2017-05-12
Runtime: 116 Minutes
Genre: -Action-Comedy
Language: en
Budget: USD 69000000
Plot: Devoted lifeguard Mitch Buchannon butts heads with a brash new recruit. Together, they uncover a local criminal plot that threatens the future of the Bay.
TMDB
TrackersSeedersLeechersCompleted
udp://tracker.coppersurfer.tk:6969/announce19,7875,335638,144
Torrent Hash: FEFEDA06A49A5ED18B09F48F0E0740F561D62E8D
Not Yet Rated (Log in to rate it)
Posted: 25-06-2017 at 22:48:55
coaster



thxs sil

Posted: 25-06-2017 at 22:48:59
coaster



thxs sil

Posted: 11-07-2017 at 18:53:12
ottman88



Pretty good copy overall a few spots were too dark


Related Torrents

Torrents NameSizeSLAge
Baywatch 2017 UNRATED BRRip x264 AAC-SSN.
       0


by PiNKMAN in Movies > Web rip, x264, x265
1.52 GB 0 0 1 day ago
Baywatch 2017 EXTENDED 1080p BRRip x264 DTS - M2Tv
       0


by LOKI in Movies > Highres Movies
3.04 GB 0 0 1 day ago
Baywatch.2017.MULTi.1080p.BluRay.x264-VENUE
       0


by PiNKMAN in Movies > Highres Movies
8.74 GB 0 0 1 day ago
Baywatch 2017 UNRATED 720P BRRip 900 mb - iExTV
       0


by Diives in Movies > Web rip, x264, x265
900.52 MB 230 115 1 day ago
Baywatch.2017.UNRATED.1080p.BluRay.x264-FOXM
       0


by foxm in Movies > Action
1.94 GB 165 235 1 day ago

Embed & Sharing


Login
Email:
Password:
[Signup]
[Recover Account]

Latest Forum

Author : Mafketel
Subject :Answer with a gif or meme game
Last Replies :  jammie63
On : 2017-08-20 13:22:18

Author : cRAYz
Subject :Keep A Word- Drop A Word Game
Last Replies :  Chelsea
On : 2017-08-20 13:21:15

Author : Deep61
Subject :Last Letter Game V4
Last Replies :  Chelsea
On : 2017-08-20 13:20:36

Author : miok
Subject :Two Word Game V2
Last Replies :  Chelsea
On : 2017-08-20 13:16:40

Author : cRAYz
Subject :A-Z Words Ending in "LY"
Last Replies :  jammie63
On : 2017-08-20 13:16:40

Author : Chelsea
Subject :A-Z Words Ending in ST
Last Replies :  Chelsea
On : 2017-08-20 12:53:15

Author : jammie63
Subject :A-Z Of Football Teams
Last Replies :  Chelsea
On : 2017-08-20 12:51:43

Author : cRAYz
Subject :Count Word Game V2
Last Replies :  Chelsea
On : 2017-08-20 12:45:46

Author : Oss
Subject :Post a word that ends with "in...
Last Replies :  Chelsea
On : 2017-08-20 12:45:03

Author : cRAYz
Subject :A-Z Words Ending in "TIVE"
Last Replies :  Chelsea
On : 2017-08-20 12:43:56

Author : cRAYz
Subject :Alphabetical Food Game
Last Replies :  Chelsea
On : 2017-08-20 12:42:56


Navigation


Blog

News

WWT Screensaver I Want You
Posted: 19-Aug-17

WWT Official Desk Top Background Version 3
Posted: 11-Aug-17

The Privateer Vol 01 issue 04
Posted: 10-Aug-17

WWT News And Updates Aug 2017
Posted: 30-Jul-17

WWT News and Updates July 2017
Posted: 02-Jul-17


Friendly Site