Torrent Details For "The.Fate.of.the.Furious.2017.HDCAM.HQMic.XVID.AC3.HQ.Hive-CM8"

Warning! Use a VPN When Downloading Torrents!
Your IP Address is . Location is
Your Internet Provider is tracking your torrent activity! Hide your IP ADDRESS with a VPN!
We strongly recommend using Trust.Zone VPN to anonymize your torrenting. It's FREE!
Get VPN Now for FREE!
The.Fate.of.the.Furious.2017.HDCAM.HQMic.XVID.AC3.HQ.Hive-CM8



Title: The.Fate.of.the.Furious.2017.HDCAM.HQMic.XVID.AC3.HQ.Hive-CM8
Category: Movies > TS/Cam Rip
Uploader:

Uploaded by Silmarillion*1175

Seeders: 4109
Leechers: 658
Completed: 1121538
Downloaded: 132
Size: 1.87 GB
Language: English English


http://www.imdb.com/title/tt4630562/

When a mysterious woman seduces Dom into the world of terrorism and a betrayal of those closest to him, the crew face trials that will test them as never before.

Director: F. Gary Gray
Writers: Chris Morgan, Gary Scott Thompson (based on characters created by)
Stars: Vin Diesel, Jason Statham, Dwayne Johnson
Genres: Action | Crime | Thriller
Country: USA

The.Fate.of.the.Furious.2017.HDCAM.HQMic.XVID.AC3.HQ.Hive-CM8

Thx Hive

CM8 Doing It Right The First Time

Sources:

Video: Latino

Audio: friend

big thx m8

Notes:

Got this great cam for this hot new movie, quality was very nice and bright and video is complete too.

Audio is very good too nearly sounds like line, fits perfectly together!

Encode:

not much to do quality was already nice enough only did the usual touch.

will do me till webdl/retail, thats the version to get, jump on

enjoy

Video: 720x304 @bitrate 1800 2pass

Audio: English HQMic AC3 2.0 stereo

Sample: yes 2 included

http://www.imdb.com/title/tt4630562/

General

Complete name                  : The.Fate.of.the.Furious.2017.HDCAM.HQMic.XVID.AC3.HQ.Hive-CM8.avi

Format                         : AVI

Format/Info                    : Audio Video Interleave

File size                      : 1.83 GiB

Duration                       : 2h 6mn

Overall bit rate               : 2 067 Kbps

Writing application            : Nandub v1.0rc2

Writing library                : Nandub build 1853/release

Video

ID                             : 0

Format                         : MPEG-4 Visual

Format profile                 : Advanced [email protected]

Format settings, BVOP          : 2

Format settings, QPel          : Yes

Format settings, GMC           : No warppoints

Format settings, Matrix        : Default (H.263)

Muxing mode                    : Packed bitstream

Codec ID                       : XVID

Codec ID/Hint                  : XviD

Duration                       : 2h 6mn

Bit rate                       : 1 800 Kbps

Width                          : 720 pixels

Height                         : 304 pixels

Display aspect ratio           : 2.35:1

Frame rate                     : 29.970 fps

Color space                    : YUV

Chroma subsampling             : 4:2:0

Bit depth                      : 8 bits

Scan type                      : Progressive

Compression mode               : Lossy

Bits/(Pixel*Frame)             : 0.274

Stream size                    : 1.59 GiB (87%)

Writing library                : XviD 1.2.1 (UTC 2008-12-04)

Audio

ID                             : 1

Format                         : AC-3

Format/Info                    : Audio Coding 3

Mode extension                 : CM (complete main)

Format settings, Endianness    : Big

Codec ID                       : 2000

Duration                       : 2h 6mn

Bit rate mode                  : Constant

Bit rate                       : 256 Kbps

Channel(s)                     : 2 channels

Channel positions              : Front: L R

Sampling rate                  : 48.0 KHz

Bit depth                      : 16 bits

Compression mode               : Lossy

Delay relative to video        : 28ms

Stream size                    : 232 MiB (12%)

Alignment                      : Split accross interleaves

Interleave, duration           : 33 ms (1.00 video frame)

Interleave, preload duration   : 500 ms

File Name: Size:
sample.avi27.21 MB
sample2.avi11.83 MB
The.Fate.of.the.Furious.2017.HDCAM.HQMic.XVID.AC3.HQ.Hive-CM8.avi1.83 GB
The.Fate.of.the.Furious.2017.HDCAM.HQMic.XVID.AC3.HQ.Hive-CM8.nfo4.05 kB
Torrent Downloaded From ExtraTorrent.cc.txt338.00 B
TrackersSeedersLeechersCompleted
udp://tracker.coppersurfer.tk:6969/announce4,1096581,121,538
Torrent Hash: E860C50F3340ACADBA4AA2E6CC2BEB0CAD72B54A
Not Yet Rated (Log in to rate it)
No comments still posted

Related Torrents


Embed & Sharing


Login
Email:
Password:
[Signup]
[Recover Account]

Latest Forum

Author : Mr. Smith
Subject :World Wide Release/WWRG
Last Replies :  roflcopter2110
On : 2017-07-25 00:31:21

Author : cRAYz
Subject :Comic Book Request Thread V.4
Last Replies :  profdan
On : 2017-07-25 00:16:29

Author : Deep61
Subject :" The Number Game " V2
Last Replies :  Reaper
On : 2017-07-24 23:47:42

Author : Stewart
Subject :Gothic Horror Random Image Thr...
Last Replies :  Reaper
On : 2017-07-24 23:41:57

Author : Stewart
Subject :Sci - Fi Random Image Thread
Last Replies :  Reaper
On : 2017-07-24 23:39:24

Author : Gear Shifter
Subject :Gear Shifter Sports Releases
Last Replies :  Gear Shifter
On : 2017-07-24 23:33:57

Author : Beowulf
Subject :Delicious food worldwide.
Last Replies :  Reaper
On : 2017-07-24 23:27:50

Author : Mr. Smith
Subject :WWRG Members Seedbox
Last Replies :  miok
On : 2017-07-24 22:50:35

Author : cRAYz
Subject :Alphabetical Girls Name Game V...
Last Replies :  GodAndUlster
On : 2017-07-24 22:40:53

Author : miok
Subject :Two Word Game V2
Last Replies :  GodAndUlster
On : 2017-07-24 22:38:59

Author : UnderTest
Subject :Post your adult jokes here!
Last Replies :  coaster
On : 2017-07-24 22:31:43

Author : QueenB
Subject :Worldwide street art V2
Last Replies :  Reaper
On : 2017-07-24 22:00:22


Navigation


Blog

News

WWT News and Updates July 2017
Posted: 02-Jul-17

WWT Updates June 2017
Posted: 02-Jun-17

WWT News And Updated May 2017
Posted: 28-Apr-17


Friendly Site