Torrent Details For "The Boss Baby 2017 720p CAM x264 AC3 TiTAN"

Warning! Use a VPN When Downloading Torrents!
Your IP Address is . Location is
Your Internet Provider is tracking your torrent activity! Hide your IP ADDRESS with a VPN!
We strongly recommend using Trust.Zone VPN to anonymize your torrenting. It's FREE!
Get VPN Now for FREE!
The Boss Baby 2017 720p CAM x264 AC3 TiTAN



Title: The Boss Baby 2017 720p CAM x264 AC3 TiTAN
Category: Movies > TS/Cam Rip
Uploader:

Uploaded by Silmarillion*1175

Seeders: 6940
Leechers: 591
Completed: 249684
Downloaded: 82
Size: 1.57 GB
Language: English English


http://www.imdb.com/title/tt3874544/

A suit-wearing briefcase-carrying baby pairs up with his seven-year old brother to stop the dastardly plot of the CEO of Puppy Co.

Director: Tom McGrath
Writers: Michael McCullers, Marla Frazee (based on the book by)
Stars: Alec Baldwin, Steve Buscemi, Jimmy Kimmel
Genres: Animation | Comedy | Family
Country: USA

Source: 720p CAM -THX

General

Format                      : Matroska
Format version              : Version 2
File size                   : 1.57 GiB
Duration                    : 1 h 37 min
Overall bit rate mode       : Variable
Overall bit rate            : 2 294 kb/s
Encoded date                : UTC 2017-04-07 17:33:50
Writing application         : mkvmerge v8.5.2 ('Crosses') 32bit
Writing library             : libebml v1.3.3 + libmatroska v1.4.4

Video
ID                          : 1
Format                      : AVC
Format/Info                 : Advanced Video Codec
Format profile              : High [email protected]
Format settings, CABAC      : Yes
Format settings, ReFrames   : 3 frames
Codec ID                    : V_MPEG4/ISO/AVC
Duration                    : 1 h 37 min
Bit rate mode               : Variable
Bit rate                    : 2 100 kb/s
Maximum bit rate            : 40.0 Mb/s
Width                       : 1 264 pixels
Height                      : 512 pixels
Display aspect ratio        : 2.469
Frame rate mode             : Constant
Frame rate                  : 23.976 (24000/1001) FPS
Color space                 : YUV
Chroma subsampling          : 4:2:0
Bit depth                   : 10 bits
Scan type                   : Progressive
Bits/(Pixel*Frame)          : 0.135
Stream size                 : 1.43 GiB (92%)
Default                     : Yes
Forced                      : No
Color range                 : Full
Color primaries             : BT.709
Transfer characteristics    : BT.709
Matrix coefficients         : BT.709

Audio
ID                          : 2
Format                      : AC-3
Format/Info                 : Audio Coding 3
Mode extension              : CM (complete main)
Format settings, Endianness : Big
Codec ID                    : A_AC3
Duration                    : 1 h 37 min
Bit rate mode               : Constant
Bit rate                    : 192 kb/s
Channel(s)                  : 2 channels
Channel positions           : Front: L R
Sampling rate               : 44.1 kHz
Frame rate                  : 28.711 FPS (1536 spf)
Compression mode            : Lossy
Stream size                 : 134 MiB (8%)
Default                     : Yes
Forced                      : No

File Name: Size:
The Boss Baby 2017 720p CAM x264 AC3 TiTAN.mkv1.57 GB
The Boss Baby 2017 720p CAM x264 AC3 TiTAN.nfo2.46 kB
Torrent Downloaded From ExtraTorrent.cc.txt338.00 B
TrackersSeedersLeechersCompleted
udp://tracker.coppersurfer.tk:6969/announce6,940591249,684
Torrent Hash: E391D4DA80D0BB84262073A3F48A48275D9D9DD1
Not Yet Rated (Log in to rate it)
Posted: 08-04-2017 at 07:18:29
Mr. Smith
ANONYMOUS


Thank You! A/8 - V/8

Posted: 13-04-2017 at 12:27:40
Csabaxb



thanx, good movie
will play again in better quality


Related Torrents


Embed & Sharing


Login
Email:
Password:
[Signup]
[Recover Account]

Latest Forum

Author : Mr. Smith
Subject :World Wide Release/WWRG
Last Replies :  roflcopter2110
On : 2017-07-25 00:31:21

Author : cRAYz
Subject :Comic Book Request Thread V.4
Last Replies :  profdan
On : 2017-07-25 00:16:29

Author : Deep61
Subject :" The Number Game " V2
Last Replies :  Reaper
On : 2017-07-24 23:47:42

Author : Stewart
Subject :Gothic Horror Random Image Thr...
Last Replies :  Reaper
On : 2017-07-24 23:41:57

Author : Stewart
Subject :Sci - Fi Random Image Thread
Last Replies :  Reaper
On : 2017-07-24 23:39:24

Author : Gear Shifter
Subject :Gear Shifter Sports Releases
Last Replies :  Gear Shifter
On : 2017-07-24 23:33:57

Author : Beowulf
Subject :Delicious food worldwide.
Last Replies :  Reaper
On : 2017-07-24 23:27:50

Author : Mr. Smith
Subject :WWRG Members Seedbox
Last Replies :  miok
On : 2017-07-24 22:50:35

Author : cRAYz
Subject :Alphabetical Girls Name Game V...
Last Replies :  GodAndUlster
On : 2017-07-24 22:40:53

Author : miok
Subject :Two Word Game V2
Last Replies :  GodAndUlster
On : 2017-07-24 22:38:59

Author : UnderTest
Subject :Post your adult jokes here!
Last Replies :  coaster
On : 2017-07-24 22:31:43

Author : QueenB
Subject :Worldwide street art V2
Last Replies :  Reaper
On : 2017-07-24 22:00:22


Navigation


Blog

News

WWT News and Updates July 2017
Posted: 02-Jul-17

WWT Updates June 2017
Posted: 02-Jun-17

WWT News And Updated May 2017
Posted: 28-Apr-17


Friendly Site