blank
Warning! Use a VPN When Downloading Torrents!
Your IP Address is . Location is
Your Internet Provider is tracking your torrent activity! Hide your IP ADDRESS with a VPN!
We strongly recommend using Trust.Zone VPN to anonymize your torrenting. It's FREE!
Get VPN Now for FREE!
Torrent Details For "Im Not Ashamed 2016 English Movies HDRip XviD AAC New Source with Sample ☻rDX☻"
 

Im Not Ashamed 2016 English Movies HDRip XviD AAC New Source with Sample ☻rDX☻
1 0
   

Complete Name :Im Not Ashamed 2016 English Movies HDRip XviD AAC New Source with Sample ☻rDX☻
Info Hash:9E56CE591F7BE94D8D4E6E0EE476DFABB9549225
Category:Movies  > Drama
Torrent language:English  
Seeds: 30
Leechers: 26
Complete: 210
Health:
Total Size:706.11 MB
Downloaded:8 Times
Added By:      rdx     (All Torrents Uploaded By User)
Uploader Reputation:720
Date Added:11-01-2017 08:00:pm | Last Edit:  14-01-2017 03:20:am



I'm Not Ashamed
I'm Not Ashamed Link
tt4950110

Rated
PG-13

Also Known As
N/A

Released
21 Oct 2016

Year
2016

Runtime
112 min

Genre
Biography, Drama

Director
Brian Baugh

Writer
Philipa A. Booyens, Robin Hanley, Kari Redmond, Bodie Thoene

Actors
Masey McLain, Ben Davies, Cameron McKendry, Terri Minton

Plot
Based on the inspiring and powerful true story and journal entries of Rachel Joy Scott - the first student killed in the Columbine high school shooting in 1999.
5.7

Votes 401
Last Updated 19-01-2017 12:57:35



File List: 

Description:
Im Not Ashamed 2016 English Movies HDRip XviD AAC New Source with Sample ☻rDX☻
Im Not Ashamed 2016 English Movies HDRip XviD AAC New Source with Sample ☻rDX☻
================================================================================================

SCREEN SHOTS & POSTER:

http://postimage.co.nr/2017/1/gps/index.htm
http://postimage.co.nr/2017/1/gps/1.html
http://postimage.co.nr/2017/1/gps/2.html
http://postimage.co.nr/2017/1/gps/3.html
http://postimage.co.nr/2017/1/gps/4.html
http://postimage.co.nr/2017/1/gps/5.html
http://postimage.co.nr/2017/1/gps/6.html
http://postimage.co.nr/2017/1/gps/7.html
http://postimage.co.nr/2017/1/gps/8.html
http://postimage.co.nr/2017/1/gps/9.html
http://postimage.co.nr/2017/1/gps/10.html


Format                                   : Matroska
Format version                           : Version 4 / Version 2
File size                                : 699 MiB
Duration                                 : 1 h 51 min
Overall bit rate                         : 878 kb/s
Movie name                               : Im Not Ashamed 2016 English Movies HDRip XviD AAC New Source ☻rDX☻

Video
ID                                       : 1
Format                                   : AVC
Format/Info                              : Advanced Video Codec
Format profile                           : [email protected]
Format settings, CABAC                   : Yes
Format settings, ReFrames                : 5 frames
Codec ID                                 : V_MPEG4/ISO/AVC
Duration                                 : 1 h 51 min
Bit rate                                 : 718 kb/s
Width                                    : 720 pixels
Height                                   : 384 pixels
Display aspect ratio                     : 16:9
Original display aspect ratio            : 16:9
Frame rate mode                          : Constant
Frame rate                               : 23.976 FPS
Standard                                 : Component
Color space                              : YUV
Chroma subsampling                       : 4:2:0
Bit depth                                : 8 bits
Scan type                                : Progressive
Bits/(Pixel*Frame)                       : 0.108
Stream size                              : 558 MiB (80%)
Title                                    : ☻rDX☻
Writing library                          : XviD

Audio
ID                                       : 2
Format                                   : AC-3
Format/Info                              : Audio Coding 3
Mode extension                           : CM (complete main)
Format settings, Endianness              : Big
Codec ID                                 : A_AC3
Duration                                 : 1 h 51 min
Bit rate mode                            : Constant
Bit rate                                 : 160 kb/s
Channel(s)                               : 2 channels
Channel positions                        : Front: L R
Sampling rate                            : 48.0 kHz
Frame rate                               : 31.250 FPS (1536 spf)
Bit depth                                : 16 bits
Compression mode                         : Lossy
Stream size                              : 127 MiB (18%)
Title                                    : ☻rDX☻
Writing library                          : Lavc57.51.100 ac3_fixed
Default                                  : Yes
Forced                                   : No

IMDB
http://www.imdb.com/title/tt4950110/


Ratings:Not Yet Rated (Log in to rate it)


Tracker:
udp://tracker.coppersurfer.tk:6969/announce
This Torrent also has backup trackers
UrlSeedersLeechersCompleted
http://retracker.krs-ix.ru/announce000
http://mgtracker.org:2710/announce3562
http://tracker.aletorrenty.pl:2710/announce000
http://tracker.btcake.com/announce000



Comments

No comments still posted
Related Torrents
CategoryTorrents NameSizeAddedSeedersLeechers
Highres Movies
X-Men.Apocalypse.2016.720p.HDRip.KORSUB.x264.AAC2.0-STUTTERSHIT 2.99 GB 2016-07-25 18:30:18 336 27
Magazines
The New Yorker August in 2016 - pdf - zeke23 12.12 MB 2016-07-25 22:26:49 39 0
Magazines
The Family Handyman - September 2016 - pdf - zeke23 28.54 MB 2016-07-25 22:30:53 11 1
Magazines
Mathematics Today August 2016 - pdf - zeke23 10.58 MB 2016-07-25 22:35:19 25 0
Highres Movies
The.Legend.of.Tarzan.2016.1080p.HDRip.KORSUB.x264.AAC2.0-STUTTERSHIT 3.62 GB 2016-08-04 14:37:51 323 34
Video
MommyGotBoobs - Veronica Avluv - La Seductora mp4s 260.83 MB 2016-08-04 14:39:43 337 22
HD
Suits.S06E04.HDTV.x264-KILLERS[rartv] 221.70 MB 2016-08-04 14:41:41 78 3
MP3
VA - Club Dance Ambience vol.80 (2016) MP3 [320 kbps] 1.08 GB 2016-08-04 14:43:11 63 2
Windows
Batman.Episode.1-CODEX 2.10 GB 2016-08-04 14:45:10 238 13
Windows
Microsoft Windows 10 PRO 1511 Build 10586 OEM June 2016 FULL [TechTools] 4.17 GB 2016-08-04 14:47:08 832 140
Login
Email:
Password:
[Signup]
[Recover Account]
Navigation
Latest Forum Topics
Author : WWRG
Subject :WWRG Members Seedbox
Last Replies :  zeke23
On : 2017-01-19 12:55:56

Author : Angelina
Subject :Which TV Show Are You Watching...
Last Replies :  Csabaxb
On : 2017-01-19 12:14:45

Author : Angelina
Subject :Request Uploader Status Here
Last Replies :  zeke23
On : 2017-01-19 11:44:01

Author : KayOs
Subject :The Desktop Wallpaper request ...
Last Replies :  KayOs
On : 2017-01-19 11:37:18

Author : WWRG
Subject :Dutch/Belgium Community!
Last Replies :  UFO1
On : 2017-01-19 11:27:19

Author : Angelina
Subject :Uploading Rules
Last Replies :  dd53787
On : 2017-01-19 11:17:39

Author : RiverCoyote
Subject :Native Meditations
Last Replies :  zeke23
On : 2017-01-19 10:04:15

Author : Angelina
Subject :Say Hello & Goodbye
Last Replies :  zeke23
On : 2017-01-19 09:59:20

Author : Trainmen
Subject :The Random Sexy Girls Image th...
Last Replies :  ADHDerby
On : 2017-01-19 09:47:23

Author : Angelina
Subject :E-book Request Thread
Last Replies :  Chelsea
On : 2017-01-19 09:36:18

Author : Jayrow75
Subject :Comic Book Request Thread V.2
Last Replies :  P074
On : 2017-01-19 09:32:02

Latest News
Latest Blog
Flower Heaven
Posted: 30-Dec-16

What will 2017-2018 reserve for us
Posted: 23-Dec-16

A Coyote's Howl Chapter 1
Posted: 11-Dec-16

Leonard Cohen R.I.P.
Posted: 11-Nov-16

Garden 2016, by popular demand.
Posted: 27-Oct-16

Music is what feelings sound like...
Posted: 26-Oct-16

You Asked For It, Here It Is
Posted: 08-Oct-16

Food for Thought
Posted: 06-Oct-16

Site Friends