Torrent Details For "Im Not Ashamed 2016 English Movies HDRip XviD AAC New Source with Sample ☻rDX☻"

Warning! Use a VPN When Downloading Torrents!
Your IP Address is . Location is
Your Internet Provider is tracking your torrent activity! Hide your IP ADDRESS with a VPN!
We strongly recommend using Trust.Zone VPN to anonymize your torrenting. It's FREE!
Get VPN Now for FREE!
Im Not Ashamed 2016 English Movies HDRip XviD AAC New Source with Sample ☻rDX☻



Title: Im Not Ashamed 2016 English Movies HDRip XviD AAC New Source with Sample ☻rDX☻
Category: Movies > Drama
Uploader:

Uploaded by rdx*3459

Seeders: 30
Leechers: 26
Completed: 210
Downloaded: 19
Size: 706.11 MB
Language: English English
IMDB: tt4950110
Im Not Ashamed 2016 English Movies HDRip XviD AAC New Source with Sample ☻rDX☻
Im Not Ashamed 2016 English Movies HDRip XviD AAC New Source with Sample ☻rDX☻
================================================================================================

SCREEN SHOTS & POSTER:

http://postimage.co.nr/2017/1/gps/index.htm
http://postimage.co.nr/2017/1/gps/1.html
http://postimage.co.nr/2017/1/gps/2.html
http://postimage.co.nr/2017/1/gps/3.html
http://postimage.co.nr/2017/1/gps/4.html
http://postimage.co.nr/2017/1/gps/5.html
http://postimage.co.nr/2017/1/gps/6.html
http://postimage.co.nr/2017/1/gps/7.html
http://postimage.co.nr/2017/1/gps/8.html
http://postimage.co.nr/2017/1/gps/9.html
http://postimage.co.nr/2017/1/gps/10.html


Format                                   : Matroska
Format version                           : Version 4 / Version 2
File size                                : 699 MiB
Duration                                 : 1 h 51 min
Overall bit rate                         : 878 kb/s
Movie name                               : Im Not Ashamed 2016 English Movies HDRip XviD AAC New Source ☻rDX☻

Video
ID                                       : 1
Format                                   : AVC
Format/Info                              : Advanced Video Codec
Format profile                           : [email protected]
Format settings, CABAC                   : Yes
Format settings, ReFrames                : 5 frames
Codec ID                                 : V_MPEG4/ISO/AVC
Duration                                 : 1 h 51 min
Bit rate                                 : 718 kb/s
Width                                    : 720 pixels
Height                                   : 384 pixels
Display aspect ratio                     : 16:9
Original display aspect ratio            : 16:9
Frame rate mode                          : Constant
Frame rate                               : 23.976 FPS
Standard                                 : Component
Color space                              : YUV
Chroma subsampling                       : 4:2:0
Bit depth                                : 8 bits
Scan type                                : Progressive
Bits/(Pixel*Frame)                       : 0.108
Stream size                              : 558 MiB (80%)
Title                                    : ☻rDX☻
Writing library                          : XviD

Audio
ID                                       : 2
Format                                   : AC-3
Format/Info                              : Audio Coding 3
Mode extension                           : CM (complete main)
Format settings, Endianness              : Big
Codec ID                                 : A_AC3
Duration                                 : 1 h 51 min
Bit rate mode                            : Constant
Bit rate                                 : 160 kb/s
Channel(s)                               : 2 channels
Channel positions                        : Front: L R
Sampling rate                            : 48.0 kHz
Frame rate                               : 31.250 FPS (1536 spf)
Bit depth                                : 16 bits
Compression mode                         : Lossy
Stream size                              : 127 MiB (18%)
Title                                    : ☻rDX☻
Writing library                          : Lavc57.51.100 ac3_fixed
Default                                  : Yes
Forced                                   : No

IMDB
http://www.imdb.com/title/tt4950110/
File Name: Size:
Im Not Ashamed 2016 English Movies HDRip XviD AAC New Source ☻rDX☻.mkv698.98 MB
Sample ~ Im Not Ashamed 2016 English Movies HDRip XviD AAC New Source ☻rDX☻.mkv7.13 MB
I'm Not Ashamed
Title: I'm Not Ashamed
Rated: 7.4 by 21 People.
A.K.A : I'm Not Ashamed
Released: 2016-10-21
Runtime: 112 Minutes
Genre: -Drama
Language: en
Budget: USD 1500000
Plot: Based on the inspiring and powerful true story and journal entries of Rachel Joy Scott- the first student killed in the Columbine high school shooting in 1999.
TMDB
TrackersSeedersLeechersCompleted
udp://tracker.coppersurfer.tk:6969/announce3026210
http://retracker.krs-ix.ru/announce000
http://mgtracker.org:2710/announce3562
http://tracker.aletorrenty.pl:2710/announce000
http://tracker.btcake.com/announce000
Torrent Hash: 9E56CE591F7BE94D8D4E6E0EE476DFABB9549225
Not Yet Rated (Log in to rate it)
No comments still posted

Related Torrents

No similar torrent

Embed & Sharing


Login
Email:
Password:
[Signup]
[Recover Account]

Latest Forum

Author : cRAYz
Subject :Comic Book Request Thread V.4
Last Replies :  ShatterPhoenix
On : 2017-08-17 03:26:55

Author : Angelina
Subject :Ebook request thread V2
Last Replies :  w106777915
On : 2017-08-17 02:03:16

Author : zeke23
Subject :Wolf Pack 5.0
Last Replies :  Stewart
On : 2017-08-17 01:45:59

Author : Stewart
Subject :Cats 'N' Cows random image...
Last Replies :  Stewart
On : 2017-08-17 01:43:01

Author : Beowulf
Subject :Beautiful cars and motorcycles...
Last Replies :  Stewart
On : 2017-08-17 01:40:10

Author : Jazzy
Subject :Fantasy conceptual art
Last Replies :  Stewart
On : 2017-08-17 01:38:42

Author : Reaper
Subject :Steampunk
Last Replies :  Stewart
On : 2017-08-17 01:36:53

Author : Stewart
Subject :Gothic Horror Random Image Thr...
Last Replies :  Stewart
On : 2017-08-17 01:35:05

Author : Stewart
Subject :Psychedelic Art Random Image T...
Last Replies :  Stewart
On : 2017-08-17 01:33:07

Author : Stewart
Subject :Sci - Fi Random Image Thread
Last Replies :  Stewart
On : 2017-08-17 01:30:59

Author : Gilgamesh
Subject :Images of Outer Space
Last Replies :  Stewart
On : 2017-08-17 01:29:06


Navigation


Blog

News

WWT Official Desk Top Background Version 3
Posted: 11-Aug-17

The Privateer Vol 01 issue 04
Posted: 10-Aug-17

WWT News And Updates Aug 2017
Posted: 30-Jul-17

WWT News and Updates July 2017
Posted: 02-Jul-17


Friendly Site