Torrent Details For "Im Not Ashamed 2016 English Movies HDRip XviD AAC New Source with Sample ☻rDX☻"

Warning! Use a VPN When Downloading Torrents!
Your IP Address is . Location is
Your Internet Provider is tracking your torrent activity! Hide your IP ADDRESS with a VPN!
We strongly recommend using Trust.Zone VPN to anonymize your torrenting. It's FREE!
Get VPN Now for FREE!
Im Not Ashamed 2016 English Movies HDRip XviD AAC New Source with Sample ☻rDX☻



Title: Im Not Ashamed 2016 English Movies HDRip XviD AAC New Source with Sample ☻rDX☻
Category: Movies > Drama
Uploader:

Uploaded by rdx*1531

Seeders: 30
Leechers: 26
Completed: 210
Downloaded: 15
Size: 706.11 MB
Language: English English
IMDB: tt4950110
Im Not Ashamed 2016 English Movies HDRip XviD AAC New Source with Sample ☻rDX☻
Im Not Ashamed 2016 English Movies HDRip XviD AAC New Source with Sample ☻rDX☻
================================================================================================

SCREEN SHOTS & POSTER:

http://postimage.co.nr/2017/1/gps/index.htm
http://postimage.co.nr/2017/1/gps/1.html
http://postimage.co.nr/2017/1/gps/2.html
http://postimage.co.nr/2017/1/gps/3.html
http://postimage.co.nr/2017/1/gps/4.html
http://postimage.co.nr/2017/1/gps/5.html
http://postimage.co.nr/2017/1/gps/6.html
http://postimage.co.nr/2017/1/gps/7.html
http://postimage.co.nr/2017/1/gps/8.html
http://postimage.co.nr/2017/1/gps/9.html
http://postimage.co.nr/2017/1/gps/10.html


Format                                   : Matroska
Format version                           : Version 4 / Version 2
File size                                : 699 MiB
Duration                                 : 1 h 51 min
Overall bit rate                         : 878 kb/s
Movie name                               : Im Not Ashamed 2016 English Movies HDRip XviD AAC New Source ☻rDX☻

Video
ID                                       : 1
Format                                   : AVC
Format/Info                              : Advanced Video Codec
Format profile                           : [email protected]
Format settings, CABAC                   : Yes
Format settings, ReFrames                : 5 frames
Codec ID                                 : V_MPEG4/ISO/AVC
Duration                                 : 1 h 51 min
Bit rate                                 : 718 kb/s
Width                                    : 720 pixels
Height                                   : 384 pixels
Display aspect ratio                     : 16:9
Original display aspect ratio            : 16:9
Frame rate mode                          : Constant
Frame rate                               : 23.976 FPS
Standard                                 : Component
Color space                              : YUV
Chroma subsampling                       : 4:2:0
Bit depth                                : 8 bits
Scan type                                : Progressive
Bits/(Pixel*Frame)                       : 0.108
Stream size                              : 558 MiB (80%)
Title                                    : ☻rDX☻
Writing library                          : XviD

Audio
ID                                       : 2
Format                                   : AC-3
Format/Info                              : Audio Coding 3
Mode extension                           : CM (complete main)
Format settings, Endianness              : Big
Codec ID                                 : A_AC3
Duration                                 : 1 h 51 min
Bit rate mode                            : Constant
Bit rate                                 : 160 kb/s
Channel(s)                               : 2 channels
Channel positions                        : Front: L R
Sampling rate                            : 48.0 kHz
Frame rate                               : 31.250 FPS (1536 spf)
Bit depth                                : 16 bits
Compression mode                         : Lossy
Stream size                              : 127 MiB (18%)
Title                                    : ☻rDX☻
Writing library                          : Lavc57.51.100 ac3_fixed
Default                                  : Yes
Forced                                   : No

IMDB
http://www.imdb.com/title/tt4950110/
File Name: Size:
Im Not Ashamed 2016 English Movies HDRip XviD AAC New Source ☻rDX☻.mkv698.98 MB
Sample ~ Im Not Ashamed 2016 English Movies HDRip XviD AAC New Source ☻rDX☻.mkv7.13 MB
I'm Not Ashamed
Title: I'm Not Ashamed
Rated: PG-13
Also Known As: N/A
Released: 21 Oct 2016
Year: 2016
Runtime: 112 min
Genre: Biography, Drama
Director: Brian Baugh
Writer: Philipa A. Booyens, Robin Hanley, Kari Redmond, Bodie Thoene
Actors: Masey McLain, Ben Davies, Cameron McKendry, Terri Minton
Plot: Based on the inspiring and powerful true story and journal entries of Rachel Joy Scott - the first student killed in the Columbine high school shooting on April 20,1999.
5.1

Votes 1,021
Last Updated 25-03-2017 19:33:26
TrackersSeedersLeechersCompleted
udp://tracker.coppersurfer.tk:6969/announce3026210
http://retracker.krs-ix.ru/announce000
http://mgtracker.org:2710/announce3562
http://tracker.aletorrenty.pl:2710/announce000
http://tracker.btcake.com/announce000
Torrent Hash: 9E56CE591F7BE94D8D4E6E0EE476DFABB9549225
Not Yet Rated (Log in to rate it)
No comments still posted

Related Torrents

No similar torrent

Embed & Sharing


Login
Email:
Password:
[Signup]
[Recover Account]

Latest Forum

Author : Angelina
Subject :Complete Uploading Rules Inclu...
Last Replies :  feyler64
On : 2017-03-25 19:27:29

Author : Deep61
Subject :Alphabetical City Name Game V2
Last Replies :  Chelsea
On : 2017-03-25 19:22:41

Author : cRAYz
Subject :A-Z Words Ending in "TION"
Last Replies :  Dr_Winchester
On : 2017-03-25 19:21:40

Author : cRAYz
Subject :A-Z Something You Keep Hidden
Last Replies :  Chelsea
On : 2017-03-25 19:21:26

Author : cRAYz
Subject :Name- Place- Animal- Thing
Last Replies :  Chelsea
On : 2017-03-25 19:19:12

Author : cRAYz
Subject :A-Z Marine & Freshwater Li...
Last Replies :  Chelsea
On : 2017-03-25 19:16:20

Author : TheUndertaker
Subject :Delicious food worldwide.
Last Replies :  Reaper
On : 2017-03-25 19:12:28

Author : nickarad
Subject :What is torrent? Explained on...
Last Replies :  nickarad
On : 2017-03-25 19:07:44

Author : cRAYz
Subject :A-Z Auto Part Thread
Last Replies :  Chelsea
On : 2017-03-25 19:01:30

Author : cRAYz
Subject :A-Z Street Names
Last Replies :  Chelsea
On : 2017-03-25 18:59:16

Author : Oss
Subject :A-Z Things you wear
Last Replies :  Chelsea
On : 2017-03-25 18:58:04

Author : cRAYz
Subject :A-Z Words That End in a Vowel
Last Replies :  Chelsea
On : 2017-03-25 18:56:55


Navigation


News


Blog

The Greatest Conspiracy : Ep. 2
Posted: 22-Mar-17

The Greatest Conspiracy : Ep.1
Posted: 19-Mar-17

Deep's Garden 2017
Posted: 10-Mar-17

Get To Know: Superiorus Silickex
Posted: 08-Mar-17

I Messed up
Posted: 09-Feb-17

KayOs`s Vape journey
Posted: 03-Feb-17

Flower Heaven
Posted: 30-Dec-16

What will 2017-2018 reserve for us
Posted: 23-Dec-16

Friendly Site