Torrent Details For "BBC Storyville The Real Great Escape 2012 WebRip x264-MCTV"

Warning! Use a VPN When Downloading Torrents!
Your IP Address is . Location is
Your Internet Provider is tracking your torrent activity! Hide your IP ADDRESS with a VPN!
We strongly recommend using Trust.Zone VPN to anonymize your torrenting. It's FREE!
Get VPN Now for FREE!
BBC Storyville The Real Great Escape 2012 WebRip x264-MCTV



Title: BBC Storyville The Real Great Escape 2012 WebRip x264-MCTV
Category: TV > SD x264 x265
Uploader:

Uploaded by Mulva1989*1499

Seeders: 368
Leechers: 371
Completed: 790
Downloaded: 21
Size: 333.47 MB
Language: English English

BBC Storyville The Real Great Escape 2012 WebRip x264-MCTV
http://www.bbc.co.uk/programmes/b006mfx6
Airdate : 19 Apr 2012

Storyville - The Real Great Escape
A Storyville Documentary: The story of the mastermind behind World War II's Great Escape, Roger Bushell, who became 'Big X' on his return to the PoW camp Stalag Luft 111.

English subtitles included

Screenshots
Click to enlarge





Format                      : MPEG-4
Format profile              : Base Media
Codec ID                    : isom (isom/avc1)
File size                   : 333 MiB
Duration                    : 1 h 22 min
Overall bit rate mode       : Variable
Overall bit rate            : 563 kb/s
Encoded date                : UTC 2017-01-11 08:37:30
Tagged date                 : UTC 2017-01-11 08:37:30

Video
ID                          : 1
Format                      : AVC
Format/Info                 : Advanced Video Codec
Format profile              : [email protected]
Format settings, CABAC      : Yes
Format settings, ReFrames   : 8 frames
Codec ID                    : avc1
Codec ID/Info               : Advanced Video Coding
Duration                    : 1 h 22 min
Bit rate                    : 463 kb/s
Maximum bit rate            : 4 365 kb/s
Width                       : 720 pixels
Height                      : 404 pixels
Display aspect ratio        : 16:9
Frame rate mode             : Constant
Frame rate                  : 25.000 FPS
Color space                 : YUV
Chroma subsampling          : 4:2:0
Bit depth                   : 8 bits
Scan type                   : Progressive
Bits/(Pixel*Frame)          : 0.064
Stream size                 : 274 MiB (82%)
Writing library             : x264 core 148 r2705 3f5ed56
Encoding settings           : cabac=1 / ref=8 / deblock=1:0:0 / analyse=0x3:0x113 / me=umh / subme=9 / psy=1 / psy_rd=1.00:0.00 / mixed_ref=1 / me_range=24 / chroma_me=1 / trellis=1 / 8x8dct=1 / cqm=0 / deadzone=21,11 / fast_pskip=1 / chroma_qp_offset=-2 / threads=6 / lookahead_threads=1 / sliced_threads=0 / nr=0 / decimate=1 / interlaced=0 / bluray_compat=0 / constrained_intra=0 / bframes=5 / b_pyramid=2 / b_adapt=2 / b_bias=0 / direct=3 / weightb=1 / open_gop=0 / weightp=2 / keyint=250 / keyint_min=25 / scenecut=40 / intra_refresh=0 / rc_lookahead=60 / rc=crf / mbtree=1 / crf=23.0 / qcomp=0.60 / qpmin=0 / qpmax=69 / qpstep=4 / ip_ratio=1.40 / aq=2:1.00
Encoded date                : UTC 2017-01-11 08:37:30
Tagged date                 : UTC 2017-01-11 08:37:35

Audio
ID                          : 2
Format                      : AAC
Format/Info                 : Advanced Audio Codec
Format profile              : LC
Codec ID                    : 40
Duration                    : 1 h 22 min
Bit rate mode               : Variable
Bit rate                    : 96.0 kb/s
Maximum bit rate            : 112 kb/s
Channel(s)                  : 2 channels
Channel positions           : Front: L R
Sampling rate               : 48.0 kHz
Frame rate                  : 46.875 FPS (1024 spf)
Compression mode            : Lossy
Stream size                 : 56.8 MiB (17%)
Title                       : BBC.Storyville.The.Real.Great.Escape.2012.WebRip.x264-MCTV.aac#audio - Imported with GPAC 0.5.0-rev
Encoded date                : UTC 2017-01-11 08:37:34
Tagged date                 : UTC 2017-01-11 08:37:35

Text
ID                          : 3
Format                      : Timed Text
Muxing mode                 : sbtl
Codec ID                    : tx3g
Duration                    : 1 h 22 min
Bit rate mode               : Variable
Bit rate                    : 84 b/s
Stream size                 : 50.8 KiB (0%)
Title                       : BBC.Storyville.The.Real.Great.Escape.2012.WebRip.x264-MCTV.srt:hdlr=sbtl:lang=en:group=2:layer=-1 - Imported with GPAC 0.5.0-rev
Language                    : English
Default                     : Yes
Forced                      : No
Alternate group             : 2
Encoded date                : UTC 2017-01-11 08:37:35
Tagged date                 : UTC 2017-01-11 08:37:35
File Name: Size:
BBC.Storyville.The.Real.Great.Escape.2012.WebRip.x264-MCTV.mp4333.36 MB
English.srt87.84 kB
MulvaCodedTV.jpg30.31 kB
TrackersSeedersLeechersCompleted
udp://tracker.coppersurfer.tk:6969/announce368371790
Torrent Hash: 65124DBCCFD64629F5483576CA34A3530A8DCA04
Not Yet Rated (Log in to rate it)
No comments still posted

Related Torrents


Embed & Sharing


Login
Email:
Password:
[Signup]
[Recover Account]

Latest Forum

Author : Beowulf
Subject :Beautiful cars and motorcycles...
Last Replies :  dascubadude
On : 2017-08-17 03:45:48

Author : cRAYz
Subject :Comic Book Request Thread V.4
Last Replies :  ShatterPhoenix
On : 2017-08-17 03:26:55

Author : Angelina
Subject :Ebook request thread V2
Last Replies :  w106777915
On : 2017-08-17 02:03:16

Author : zeke23
Subject :Wolf Pack 5.0
Last Replies :  Stewart
On : 2017-08-17 01:45:59

Author : Stewart
Subject :Cats 'N' Cows random image...
Last Replies :  Stewart
On : 2017-08-17 01:43:01

Author : Jazzy
Subject :Fantasy conceptual art
Last Replies :  Stewart
On : 2017-08-17 01:38:42

Author : Reaper
Subject :Steampunk
Last Replies :  Stewart
On : 2017-08-17 01:36:53

Author : Stewart
Subject :Gothic Horror Random Image Thr...
Last Replies :  Stewart
On : 2017-08-17 01:35:05

Author : Stewart
Subject :Psychedelic Art Random Image T...
Last Replies :  Stewart
On : 2017-08-17 01:33:07

Author : Stewart
Subject :Sci - Fi Random Image Thread
Last Replies :  Stewart
On : 2017-08-17 01:30:59

Author : Gilgamesh
Subject :Images of Outer Space
Last Replies :  Stewart
On : 2017-08-17 01:29:06


Navigation


Blog

News

WWT Official Desk Top Background Version 3
Posted: 11-Aug-17

The Privateer Vol 01 issue 04
Posted: 10-Aug-17

WWT News And Updates Aug 2017
Posted: 30-Jul-17

WWT News and Updates July 2017
Posted: 02-Jul-17


Friendly Site