blank
Warning! Use a VPN When Downloading Torrents!
Your IP Address is . Location is
Your Internet Provider is tracking your torrent activity! Hide your IP ADDRESS with a VPN!
We strongly recommend using Trust.Zone VPN to anonymize your torrenting. It's FREE!
Get VPN Now for FREE!
Torrent Details For "Chasing Robert Barker 2015 English Movies HDRip XviD AAC New Source with Sample ☻rDX☻"
 

Chasing Robert Barker 2015 English Movies HDRip XviD AAC New Source with Sample ☻rDX☻
0 0
   

Complete Name :Chasing Robert Barker 2015 English Movies HDRip XviD AAC New Source with Sample ☻rDX☻
Info Hash:F550E85184941597B3F1CB1AC5582273562F6DF7
Category:Movies  > Mystery/Thriller
Torrent language:English  
Seeds: 6
Leechers: 3
Complete: 26
Health:
Total Size:704.98 MB
Downloaded:5 Times
Added By:      rdx     (All Torrents Uploaded By User)
Uploader Reputation:720
Date Added:10-01-2017 03:58:am | Last Edit:  13-01-2017 04:33:am



Chasing Robert Barker
Chasing Robert Barker Link
tt2904670

Rated
N/A

Also Known As
N/A

Released
08 Oct 2015

Year
2015

Runtime
90 min

Genre
Drama, Thriller

Director
Daniel Florencio

Writer
Daniel Florencio (story), Daniel Florencio, Maria Nefeli Zygopoulou

Actors
Gudmundur Thorvaldsson, Patrick Baladi, Hilda Péter, Patrick Regis

Plot
A photographer turned paparazzi is caught in the downward spiral of a fabricated tabloid story.
6.7

Votes 56
Last Updated 19-01-2017 19:14:33



File List: 

Description:
Chasing Robert Barker 2015 English Movies HDRip XviD AAC New Source with Sample ☻rDX☻
Chasing Robert Barker 2015 English Movies HDRip XviD AAC New Source with Sample ☻rDX☻
================================================================================================

SCREEN SHOTS & POSTER:

http://postimage.co.nr/2017/1/online/index.htm
http://postimage.co.nr/2017/1/online/1.html
http://postimage.co.nr/2017/1/online/2.html
http://postimage.co.nr/2017/1/online/3.html
http://postimage.co.nr/2017/1/online/4.html
http://postimage.co.nr/2017/1/online/5.html
http://postimage.co.nr/2017/1/online/6.html
http://postimage.co.nr/2017/1/online/7.html
http://postimage.co.nr/2017/1/online/8.html
http://postimage.co.nr/2017/1/online/9.html
http://postimage.co.nr/2017/1/online/10.html


Format                                   : Matroska
Format version                           : Version 4 / Version 2
File size                                : 694 MiB
Duration                                 : 1 h 27 min
Overall bit rate                         : 1 105 kb/s
Movie name                               : Chasing Robert Barker 2015 English Movies HDRip XviD AAC New Source ☻rDX☻

Video
ID                                       : 1
Format                                   : MPEG-4 Visual
Format profile                           : Advanced [email protected]
Format settings, BVOP                    : 2
Format settings, QPel                    : No
Format settings, GMC                     : No warppoints
Format settings, Matrix                  : Default (H.263)
Muxing mode                              : Packed bitstream
Codec ID                                 : V_MS/VFW/FOURCC / XVID
Codec ID/Hint                            : XviD
Duration                                 : 1 h 27 min
Bit rate                                 : 955 kb/s
Width                                    : 640 pixels
Height                                   : 272 pixels
Display aspect ratio                     : 2.35:1
Frame rate mode                          : Constant
Frame rate                               : 25.000 FPS
Color space                              : YUV
Chroma subsampling                       : 4:2:0
Bit depth                                : 8 bits
Scan type                                : Progressive
Compression mode                         : Lossy
Bits/(Pixel*Frame)                       : 0.220
Stream size                              : 600 MiB (86%)
Title                                    : ☻rDX☻
Writing library                          : XviD 64
Default                                  : Yes
Forced                                   : No

Audio
ID                                       : 2
Format                                   : MPEG Audio
Format version                           : Version 1
Format profile                           : Layer 3
Mode                                     : Joint stereo
Mode extension                           : MS Stereo
Codec ID                                 : A_MPEG/L3
Codec ID/Hint                            : MP3
Duration                                 : 1 h 27 min
Bit rate mode                            : Constant
Bit rate                                 : 128 kb/s
Channel(s)                               : 2 channels
Sampling rate                            : 48.0 kHz
Compression mode                         : Lossy
Stream size                              : 80.3 MiB (12%)
Title                                    : ☻rDX☻
Writing library                          : LAME3.99r
Encoding settings                        : -m j -V 4 -q 3 -lowpass 17 -b 128
Default                                  : Yes
Forced                                   : No

IMDB
http://www.imdb.com/title/tt2904670/


Ratings:Not Yet Rated (Log in to rate it)


Tracker:
udp://tracker.coppersurfer.tk:6969/announce
This Torrent also has backup trackers
UrlSeedersLeechersCompleted
http://retracker.krs-ix.ru/announce000
http://mgtracker.org:2710/announce217
http://tracker.aletorrenty.pl:2710/announce000
http://tracker.btcake.com/announce000



Comments

No comments still posted
Related Torrents
CategoryTorrents NameSizeAddedSeedersLeechers
Highres Movies
X-Men.Apocalypse.2016.720p.HDRip.KORSUB.x264.AAC2.0-STUTTERSHIT 2.99 GB 2016-07-25 18:30:18 336 27
Magazines
The New Yorker August in 2016 - pdf - zeke23 12.12 MB 2016-07-25 22:26:49 39 0
Magazines
The Family Handyman - September 2016 - pdf - zeke23 28.54 MB 2016-07-25 22:30:53 11 1
Magazines
Mathematics Today August 2016 - pdf - zeke23 10.58 MB 2016-07-25 22:35:19 25 0
Highres Movies
The.Legend.of.Tarzan.2016.1080p.HDRip.KORSUB.x264.AAC2.0-STUTTERSHIT 3.62 GB 2016-08-04 14:37:51 323 34
Video
MommyGotBoobs - Veronica Avluv - La Seductora mp4s 260.83 MB 2016-08-04 14:39:43 337 22
HD
Suits.S06E04.HDTV.x264-KILLERS[rartv] 221.70 MB 2016-08-04 14:41:41 78 3
MP3
VA - Club Dance Ambience vol.80 (2016) MP3 [320 kbps] 1.08 GB 2016-08-04 14:43:11 63 2
Windows
Batman.Episode.1-CODEX 2.10 GB 2016-08-04 14:45:10 238 13
Windows
Microsoft Windows 10 PRO 1511 Build 10586 OEM June 2016 FULL [TechTools] 4.17 GB 2016-08-04 14:47:08 832 140
Login
Email:
Password:
[Signup]
[Recover Account]
Navigation
Latest Forum Topics
Author : Angelina
Subject :Say Hello & Goodbye
Last Replies :  Angelina
On : 2017-01-19 19:06:07

Author : UnderTest
Subject :Cartoon/Animation Torrent Requ...
Last Replies :  MattCoburn
On : 2017-01-19 18:51:30

Author : WWRG
Subject :Dutch/Belgium Community!
Last Replies :  TrueEdterBak
On : 2017-01-19 18:46:44

Author : Trainmen
Subject :The Random Sexy Girls Image th...
Last Replies :  Csabaxb
On : 2017-01-19 18:46:12

Author : QueenB
Subject :Happy birthday Jayrow75
Last Replies :  Ouwetje
On : 2017-01-19 18:40:02

Author : hcls
Subject :Challenge for You -Games
Last Replies :  Ouwetje
On : 2017-01-19 18:39:00

Author : WarhoundOne
Subject :WWT NFL Weekly Competition
Last Replies :  Albion
On : 2017-01-19 17:31:02

Author : roflcopter2110
Subject :Torrent Kings Release Group/TK...
Last Replies :  roflcopter2110
On : 2017-01-19 16:52:55

Author : Angelina
Subject :E-book Request Thread
Last Replies :  WarhoundOne
On : 2017-01-19 16:09:00

Author : Trainmen
Subject :Funny and Dangerous Youtube Vi...
Last Replies :  KillerJane
On : 2017-01-19 15:40:39

Author : WWRG
Subject :Last Letter Game V2
Last Replies :  Trainmen
On : 2017-01-19 15:38:39

Author : Jazzy
Subject :Fantasy conceptual art
Last Replies :  Trainmen
On : 2017-01-19 15:35:46

Latest News
Latest Blog
Flower Heaven
Posted: 30-Dec-16

What will 2017-2018 reserve for us
Posted: 23-Dec-16

A Coyote's Howl Chapter 1
Posted: 11-Dec-16

Leonard Cohen R.I.P.
Posted: 11-Nov-16

Garden 2016, by popular demand.
Posted: 27-Oct-16

Music is what feelings sound like...
Posted: 26-Oct-16

You Asked For It, Here It Is
Posted: 08-Oct-16

Food for Thought
Posted: 06-Oct-16

Site Friends