Torrent Details For "Chasing Robert Barker 2015 English Movies HDRip XviD AAC New Source with Sample ☻rDX☻"

Warning! Use a VPN When Downloading Torrents!
Your IP Address is . Location is
Your Internet Provider is tracking your torrent activity! Hide your IP ADDRESS with a VPN!
We strongly recommend using Trust.Zone VPN to anonymize your torrenting. It's FREE!
Get VPN Now for FREE!
Chasing Robert Barker 2015 English Movies HDRip XviD AAC New Source with Sample ☻rDX☻



Title: Chasing Robert Barker 2015 English Movies HDRip XviD AAC New Source with Sample ☻rDX☻
Category: Movies > Mystery/Thriller
Uploader:

Uploaded by rdx*3459

Seeders: 6
Leechers: 3
Completed: 26
Downloaded: 16
Size: 704.98 MB
Language: English English
IMDB: tt2904670
Chasing Robert Barker 2015 English Movies HDRip XviD AAC New Source with Sample ☻rDX☻
Chasing Robert Barker 2015 English Movies HDRip XviD AAC New Source with Sample ☻rDX☻
================================================================================================

SCREEN SHOTS & POSTER:

http://postimage.co.nr/2017/1/online/index.htm
http://postimage.co.nr/2017/1/online/1.html
http://postimage.co.nr/2017/1/online/2.html
http://postimage.co.nr/2017/1/online/3.html
http://postimage.co.nr/2017/1/online/4.html
http://postimage.co.nr/2017/1/online/5.html
http://postimage.co.nr/2017/1/online/6.html
http://postimage.co.nr/2017/1/online/7.html
http://postimage.co.nr/2017/1/online/8.html
http://postimage.co.nr/2017/1/online/9.html
http://postimage.co.nr/2017/1/online/10.html


Format                                   : Matroska
Format version                           : Version 4 / Version 2
File size                                : 694 MiB
Duration                                 : 1 h 27 min
Overall bit rate                         : 1 105 kb/s
Movie name                               : Chasing Robert Barker 2015 English Movies HDRip XviD AAC New Source ☻rDX☻

Video
ID                                       : 1
Format                                   : MPEG-4 Visual
Format profile                           : Advanced [email protected]
Format settings, BVOP                    : 2
Format settings, QPel                    : No
Format settings, GMC                     : No warppoints
Format settings, Matrix                  : Default (H.263)
Muxing mode                              : Packed bitstream
Codec ID                                 : V_MS/VFW/FOURCC / XVID
Codec ID/Hint                            : XviD
Duration                                 : 1 h 27 min
Bit rate                                 : 955 kb/s
Width                                    : 640 pixels
Height                                   : 272 pixels
Display aspect ratio                     : 2.35:1
Frame rate mode                          : Constant
Frame rate                               : 25.000 FPS
Color space                              : YUV
Chroma subsampling                       : 4:2:0
Bit depth                                : 8 bits
Scan type                                : Progressive
Compression mode                         : Lossy
Bits/(Pixel*Frame)                       : 0.220
Stream size                              : 600 MiB (86%)
Title                                    : ☻rDX☻
Writing library                          : XviD 64
Default                                  : Yes
Forced                                   : No

Audio
ID                                       : 2
Format                                   : MPEG Audio
Format version                           : Version 1
Format profile                           : Layer 3
Mode                                     : Joint stereo
Mode extension                           : MS Stereo
Codec ID                                 : A_MPEG/L3
Codec ID/Hint                            : MP3
Duration                                 : 1 h 27 min
Bit rate mode                            : Constant
Bit rate                                 : 128 kb/s
Channel(s)                               : 2 channels
Sampling rate                            : 48.0 kHz
Compression mode                         : Lossy
Stream size                              : 80.3 MiB (12%)
Title                                    : ☻rDX☻
Writing library                          : LAME3.99r
Encoding settings                        : -m j -V 4 -q 3 -lowpass 17 -b 128
Default                                  : Yes
Forced                                   : No

IMDB
http://www.imdb.com/title/tt2904670/
File Name: Size:
Chasing Robert Barker 2015 English Movies HDRip XviD AAC New Source ☻rDX☻.mkv693.81 MB
Sample ~ Chasing Robert Barker 2015 English Movies HDRip XviD AAC New Source ☻rDX☻.mkv11.17 MB
Chasing Robert Barker
Title: Chasing Robert Barker
Rated: 0 by 0 People.
A.K.A : Chasing Robert Barker
Released: 2015-10-08
Runtime: 90 Minutes
Genre: -Thriller-Drama
Language: en
Budget: USD 0
Plot: A photographer turned paparazzi is caught in the downward spiral of a fabricated tabloid story.
TMDB
TrackersSeedersLeechersCompleted
udp://tracker.coppersurfer.tk:6969/announce6326
http://retracker.krs-ix.ru/announce000
http://mgtracker.org:2710/announce217
http://tracker.aletorrenty.pl:2710/announce000
http://tracker.btcake.com/announce000
Torrent Hash: F550E85184941597B3F1CB1AC5582273562F6DF7
Not Yet Rated (Log in to rate it)
No comments still posted

Related Torrents

Torrents NameSizeSLAge
Chasing.Madoff.2010.720p.BluRay.x264-BiQ [NO RAR][PRiME]
       0


by PiNKMAN in Movies > Highres Movies
4.37 GB 0 0 11 wks ago
Chasing.Robert.Barker.2015.HDRip.XViD-ETRG
       0


by juggs in Movies > Mystery/Thriller
705.69 MB 3,370 6,715 31 wks ago

Embed & Sharing


Login
Email:
Password:
[Signup]
[Recover Account]

Latest Forum

Author : Beowulf
Subject :Beautiful cars and motorcycles...
Last Replies :  dascubadude
On : 2017-08-17 03:49:03

Author : cRAYz
Subject :Comic Book Request Thread V.4
Last Replies :  ShatterPhoenix
On : 2017-08-17 03:26:55

Author : Angelina
Subject :Ebook request thread V2
Last Replies :  w106777915
On : 2017-08-17 02:03:16

Author : zeke23
Subject :Wolf Pack 5.0
Last Replies :  Stewart
On : 2017-08-17 01:45:59

Author : Stewart
Subject :Cats 'N' Cows random image...
Last Replies :  Stewart
On : 2017-08-17 01:43:01

Author : Jazzy
Subject :Fantasy conceptual art
Last Replies :  Stewart
On : 2017-08-17 01:38:42

Author : Reaper
Subject :Steampunk
Last Replies :  Stewart
On : 2017-08-17 01:36:53

Author : Stewart
Subject :Gothic Horror Random Image Thr...
Last Replies :  Stewart
On : 2017-08-17 01:35:05

Author : Stewart
Subject :Psychedelic Art Random Image T...
Last Replies :  Stewart
On : 2017-08-17 01:33:07

Author : Stewart
Subject :Sci - Fi Random Image Thread
Last Replies :  Stewart
On : 2017-08-17 01:30:59

Author : Gilgamesh
Subject :Images of Outer Space
Last Replies :  Stewart
On : 2017-08-17 01:29:06


Navigation


Blog

News

WWT Official Desk Top Background Version 3
Posted: 11-Aug-17

The Privateer Vol 01 issue 04
Posted: 10-Aug-17

WWT News And Updates Aug 2017
Posted: 30-Jul-17

WWT News and Updates July 2017
Posted: 02-Jul-17


Friendly Site