blank
Warning! Use a VPN When Downloading Torrents!
Your IP Address is . Location is
Your Internet Provider is tracking your torrent activity! Hide your IP ADDRESS with a VPN!
We strongly recommend using Trust.Zone VPN to anonymize your torrenting. It's FREE!
Get VPN Now for FREE!
Torrent Details For "Valley Of The Sasquatch 2016 English Movies HDRip XviD AAC New Source with Sample ☻rDX☻"
 

Valley Of The Sasquatch 2016 English Movies HDRip XviD AAC New Source with Sample ☻rDX☻
0 0
   

Complete Name :Valley Of The Sasquatch 2016 English Movies HDRip XviD AAC New Source with Sample ☻rDX☻
Info Hash:54A60C03B1A6E3A1BF5DAEA22EE8DFB6C53D09D2
Category:Movies  > Mystery/Thriller
Torrent language:English  
Seeds: 84
Leechers: 146
Complete: 81
Health:
Total Size:706.01 MB
Downloaded:9 Times
Added By:      rdx     (All Torrents Uploaded By User)
Uploader Reputation:722
Date Added:09-01-2017 05:16:pm | Last Edit:  10-01-2017 04:17:am




File List: 

Description:
Valley Of The Sasquatch 2016 English Movies HDRip XviD AAC New Source with Sample ☻rDX☻
Valley Of The Sasquatch 2016 English Movies HDRip XviD AAC New Source with Sample ☻rDX☻
================================================================================================

SCREEN SHOTS & POSTER:

http://postimage.co.nr/2017/1/sale/index.htm
http://postimage.co.nr/2017/1/sale/1.html
http://postimage.co.nr/2017/1/sale/2.html
http://postimage.co.nr/2017/1/sale/3.html
http://postimage.co.nr/2017/1/sale/4.html
http://postimage.co.nr/2017/1/sale/5.html
http://postimage.co.nr/2017/1/sale/6.html
http://postimage.co.nr/2017/1/sale/7.html
http://postimage.co.nr/2017/1/sale/8.html
http://postimage.co.nr/2017/1/sale/9.html
http://postimage.co.nr/2017/1/sale/10.html


Format                                   : Matroska
Format version                           : Version 4 / Version 2
File size                                : 698 MiB
Duration                                 : 1 h 31 min
Overall bit rate mode                    : Constant
Overall bit rate                         : 1 071 kb/s
Movie name                               : Valley Of The Sasquatch 2016 English Movies HDRip XviD AAC New Source ☻rDX☻

Video
ID                                       : 2
Format                                   : AVC
Format/Info                              : Advanced Video Codec
Format profile                           : [email protected]
Format settings, CABAC                   : Yes
Format settings, ReFrames                : 2 frames
Format settings, GOP                     : M=1, N=12
Codec ID                                 : V_MPEG4/ISO/AVC
Duration                                 : 1 h 31 min
Bit rate mode                            : Constant
Bit rate                                 : 688 kb/s
Width                                    : 720 pixels
Height                                   : 400 pixels
Display aspect ratio                     : 16:9
Frame rate mode                          : Constant
Frame rate                               : 23.976 FPS
Color space                              : YUV
Chroma subsampling                       : 4:2:0
Bit depth                                : 8 bits
Scan type                                : Progressive
Bits/(Pixel*Frame)                       : 0.100
Stream size                              : 434 MiB (62%)
Title                                    : ☻rDX☻
Default                                  : Yes
Forced                                   : No

Audio
ID                                       : 1
Format                                   : AC-3
Format/Info                              : Audio Coding 3
Mode extension                           : CM (complete main)
Format settings, Endianness              : Big
Codec ID                                 : A_AC3
Duration                                 : 1 h 31 min
Bit rate mode                            : Constant
Bit rate                                 : 384 kb/s
Channel(s)                               : 6 channels
Channel positions                        : Front: L C R, Side: L R, LFE
Sampling rate                            : 48.0 kHz
Frame rate                               : 31.250 FPS (1536 spf)
Bit depth                                : 16 bits
Compression mode                         : Lossy
Stream size                              : 250 MiB (36%)
Title                                    : ☻rDX☻
Default                                  : Yes
Forced                                   : No

IMDB
na


Ratings:Not Yet Rated (Log in to rate it)


Tracker:
udp://tracker.coppersurfer.tk:6969/announce
This Torrent also has backup trackers
UrlSeedersLeechersCompleted
http://retracker.krs-ix.ru/announce000
http://mgtracker.org:2710/announce61910
http://tracker.aletorrenty.pl:2710/announce000
http://tracker.btcake.com/announce000



Comments

No comments still posted
Related Torrents
CategoryTorrents NameSizeAddedSeedersLeechers
Highres Movies
X-Men.Apocalypse.2016.720p.HDRip.KORSUB.x264.AAC2.0-STUTTERSHIT 2.99 GB 2016-07-25 18:30:18 336 27
Magazines
The New Yorker August in 2016 - pdf - zeke23 12.12 MB 2016-07-25 22:26:49 39 0
Magazines
The Family Handyman - September 2016 - pdf - zeke23 28.54 MB 2016-07-25 22:30:53 11 1
Magazines
Mathematics Today August 2016 - pdf - zeke23 10.58 MB 2016-07-25 22:35:19 25 0
Highres Movies
The.Legend.of.Tarzan.2016.1080p.HDRip.KORSUB.x264.AAC2.0-STUTTERSHIT 3.62 GB 2016-08-04 14:37:51 323 34
Video
MommyGotBoobs - Veronica Avluv - La Seductora mp4s 260.83 MB 2016-08-04 14:39:43 298 52
HD
Suits.S06E04.HDTV.x264-KILLERS[rartv] 221.70 MB 2016-08-04 14:41:41 78 3
MP3
VA - Club Dance Ambience vol.80 (2016) MP3 [320 kbps] 1.08 GB 2016-08-04 14:43:11 63 2
Windows
Batman.Episode.1-CODEX 2.10 GB 2016-08-04 14:45:10 238 13
Windows
Microsoft Windows 10 PRO 1511 Build 10586 OEM June 2016 FULL [TechTools] 4.17 GB 2016-08-04 14:47:08 832 140
Login
Email:
Password:
[Signup]
[Recover Account]
Navigation
Latest Forum Topics
Author : Jayrow75
Subject :Comic Book Request Thread V.2
Last Replies :  r
On : 2017-01-20 11:41:11

Author : WWRG
Subject :WWRG Members Seedbox
Last Replies :  WWRG
On : 2017-01-20 11:33:10

Author : WWRG
Subject :Dutch/Belgium Community!
Last Replies :  TrueEdterBak
On : 2017-01-20 11:27:37

Author : Angelina
Subject :Request Uploader Status Here
Last Replies :  zeke23
On : 2017-01-20 10:50:02

Author : WWRG
Subject :Alphabetical Boys Name Game V2...
Last Replies :  Deep61
On : 2017-01-20 10:13:49

Author : WWRG
Subject :Alphabetical Girls Name Game V...
Last Replies :  Deep61
On : 2017-01-20 10:13:24

Author : Bartacus
Subject :Alphabetical City Name Game
Last Replies :  Deep61
On : 2017-01-20 10:13:02

Author : RiverCoyote
Subject :Native Meditations
Last Replies :  zeke23
On : 2017-01-20 09:58:35

Author : Angelina
Subject :Say Hello & Goodbye
Last Replies :  zeke23
On : 2017-01-20 09:57:05

Author : WWRG
Subject :Last Letter Game V2
Last Replies :  QueenB
On : 2017-01-20 09:52:55

Author : cRAYz
Subject :Alphabetical 4 Letter Words
Last Replies :  QueenB
On : 2017-01-20 09:51:17

Author : Angelina
Subject :Uploading Rules
Last Replies :  kimba
On : 2017-01-20 09:30:13

Latest News
Latest Blog
Flower Heaven
Posted: 30-Dec-16

What will 2017-2018 reserve for us
Posted: 23-Dec-16

A Coyote's Howl Chapter 1
Posted: 11-Dec-16

Leonard Cohen R.I.P.
Posted: 11-Nov-16

Garden 2016, by popular demand.
Posted: 27-Oct-16

Music is what feelings sound like...
Posted: 26-Oct-16

You Asked For It, Here It Is
Posted: 08-Oct-16

Food for Thought
Posted: 06-Oct-16

Site Friends