Torrent Details For "Valley Of The Sasquatch 2016 English Movies HDRip XviD AAC New Source with Sample ☻rDX☻"

Warning! Use a VPN When Downloading Torrents!
Your IP Address is . Location is
Your Internet Provider is tracking your torrent activity! Hide your IP ADDRESS with a VPN!
We strongly recommend using Trust.Zone VPN to anonymize your torrenting. It's FREE!
Get VPN Now for FREE!
Valley Of The Sasquatch 2016 English Movies HDRip XviD AAC New Source with Sample ☻rDX☻



Title: Valley Of The Sasquatch 2016 English Movies HDRip XviD AAC New Source with Sample ☻rDX☻
Category: Movies > Mystery/Thriller
Uploader:

Uploaded by rdx*1531

Seeders: 84
Leechers: 146
Completed: 81
Downloaded: 17
Size: 706.01 MB
Language: English English
Valley Of The Sasquatch 2016 English Movies HDRip XviD AAC New Source with Sample ☻rDX☻
Valley Of The Sasquatch 2016 English Movies HDRip XviD AAC New Source with Sample ☻rDX☻
================================================================================================

SCREEN SHOTS & POSTER:

http://postimage.co.nr/2017/1/sale/index.htm
http://postimage.co.nr/2017/1/sale/1.html
http://postimage.co.nr/2017/1/sale/2.html
http://postimage.co.nr/2017/1/sale/3.html
http://postimage.co.nr/2017/1/sale/4.html
http://postimage.co.nr/2017/1/sale/5.html
http://postimage.co.nr/2017/1/sale/6.html
http://postimage.co.nr/2017/1/sale/7.html
http://postimage.co.nr/2017/1/sale/8.html
http://postimage.co.nr/2017/1/sale/9.html
http://postimage.co.nr/2017/1/sale/10.html


Format                                   : Matroska
Format version                           : Version 4 / Version 2
File size                                : 698 MiB
Duration                                 : 1 h 31 min
Overall bit rate mode                    : Constant
Overall bit rate                         : 1 071 kb/s
Movie name                               : Valley Of The Sasquatch 2016 English Movies HDRip XviD AAC New Source ☻rDX☻

Video
ID                                       : 2
Format                                   : AVC
Format/Info                              : Advanced Video Codec
Format profile                           : [email protected]
Format settings, CABAC                   : Yes
Format settings, ReFrames                : 2 frames
Format settings, GOP                     : M=1, N=12
Codec ID                                 : V_MPEG4/ISO/AVC
Duration                                 : 1 h 31 min
Bit rate mode                            : Constant
Bit rate                                 : 688 kb/s
Width                                    : 720 pixels
Height                                   : 400 pixels
Display aspect ratio                     : 16:9
Frame rate mode                          : Constant
Frame rate                               : 23.976 FPS
Color space                              : YUV
Chroma subsampling                       : 4:2:0
Bit depth                                : 8 bits
Scan type                                : Progressive
Bits/(Pixel*Frame)                       : 0.100
Stream size                              : 434 MiB (62%)
Title                                    : ☻rDX☻
Default                                  : Yes
Forced                                   : No

Audio
ID                                       : 1
Format                                   : AC-3
Format/Info                              : Audio Coding 3
Mode extension                           : CM (complete main)
Format settings, Endianness              : Big
Codec ID                                 : A_AC3
Duration                                 : 1 h 31 min
Bit rate mode                            : Constant
Bit rate                                 : 384 kb/s
Channel(s)                               : 6 channels
Channel positions                        : Front: L C R, Side: L R, LFE
Sampling rate                            : 48.0 kHz
Frame rate                               : 31.250 FPS (1536 spf)
Bit depth                                : 16 bits
Compression mode                         : Lossy
Stream size                              : 250 MiB (36%)
Title                                    : ☻rDX☻
Default                                  : Yes
Forced                                   : No

IMDB
na
File Name: Size:
Sample ~ Valley Of The Sasquatch 2016 English Movies HDRip XviD AAC New Source ☻rDX☻.mkv8.06 MB
Valley Of The Sasquatch 2016 English Movies HDRip XviD AAC New Source ☻rDX☻.mkv697.95 MB
TrackersSeedersLeechersCompleted
udp://tracker.coppersurfer.tk:6969/announce8414681
http://retracker.krs-ix.ru/announce000
http://mgtracker.org:2710/announce61910
http://tracker.aletorrenty.pl:2710/announce000
http://tracker.btcake.com/announce000
Torrent Hash: 54A60C03B1A6E3A1BF5DAEA22EE8DFB6C53D09D2
Not Yet Rated (Log in to rate it)
No comments still posted

Related Torrents


Embed & Sharing


Login
Email:
Password:
[Signup]
[Recover Account]

Latest Forum

Author : Angelina
Subject :Complete Uploading Rules Inclu...
Last Replies :  feyler64
On : 2017-03-25 19:27:29

Author : Deep61
Subject :Alphabetical City Name Game V2
Last Replies :  Chelsea
On : 2017-03-25 19:22:41

Author : cRAYz
Subject :A-Z Words Ending in "TION"
Last Replies :  Dr_Winchester
On : 2017-03-25 19:21:40

Author : cRAYz
Subject :A-Z Something You Keep Hidden
Last Replies :  Chelsea
On : 2017-03-25 19:21:26

Author : cRAYz
Subject :Name- Place- Animal- Thing
Last Replies :  Chelsea
On : 2017-03-25 19:19:12

Author : cRAYz
Subject :A-Z Marine & Freshwater Li...
Last Replies :  Chelsea
On : 2017-03-25 19:16:20

Author : TheUndertaker
Subject :Delicious food worldwide.
Last Replies :  Reaper
On : 2017-03-25 19:12:28

Author : nickarad
Subject :What is torrent? Explained on...
Last Replies :  nickarad
On : 2017-03-25 19:07:44

Author : cRAYz
Subject :A-Z Auto Part Thread
Last Replies :  Chelsea
On : 2017-03-25 19:01:30

Author : cRAYz
Subject :A-Z Street Names
Last Replies :  Chelsea
On : 2017-03-25 18:59:16

Author : Oss
Subject :A-Z Things you wear
Last Replies :  Chelsea
On : 2017-03-25 18:58:04

Author : cRAYz
Subject :A-Z Words That End in a Vowel
Last Replies :  Chelsea
On : 2017-03-25 18:56:55


Navigation


News


Blog

The Greatest Conspiracy : Ep. 2
Posted: 22-Mar-17

The Greatest Conspiracy : Ep.1
Posted: 19-Mar-17

Deep's Garden 2017
Posted: 10-Mar-17

Get To Know: Superiorus Silickex
Posted: 08-Mar-17

I Messed up
Posted: 09-Feb-17

KayOs`s Vape journey
Posted: 03-Feb-17

Flower Heaven
Posted: 30-Dec-16

What will 2017-2018 reserve for us
Posted: 23-Dec-16

Friendly Site