Torrent Details For "The Big Bang Theory S10E12 Holiday Summation 720p Web-DL EN-Sub x264-[MULVAcoded]"

Warning! Use a VPN When Downloading Torrents!
Your IP Address is . Location is
Your Internet Provider is tracking your torrent activity! Hide your IP ADDRESS with a VPN!
We strongly recommend using Trust.Zone VPN to anonymize your torrenting. It's FREE!
Get VPN Now for FREE!
The Big Bang Theory S10E12 Holiday Summation 720p Web-DL EN-Sub x264-[MULVAcoded]



Title: The Big Bang Theory S10E12 Holiday Summation 720p Web-DL EN-Sub x264-[MULVAcoded]
Category: TV > HD
Uploader:

Uploaded by Mulva1989*1499

Seeders: 4425
Leechers: 1239
Completed: 51510
Downloaded: 71
Size: 156.99 MB
Language: English English

The Big Bang Theory S10E12 Holiday Summation 720p Web-DL EN-Sub x264-[MULVAcoded]
http://www.imdb.com/title/tt0898266
Airdate : 2017-01-05

Sheldon and Amy visit Leonard and Penny for the first time since the holidays and share details about their terrible trip to Texas.

English subtitles included

Screenshots
Click to enlarge



***NOTE***
MULVAcoded encodes are now compatible with xbox 360/PS3/PS4 and most embedded TV players!
*** *** ***


Format                      : Matroska
Format version              : Version 4 / Version 2
File size                   : 157 MiB
Duration                    : 20 min 55 s
Overall bit rate            : 1 049 kb/s
Encoded date                : UTC 2017-01-06 16:43:07
Writing application         : mkvmerge v8.3.0 ('Over the Horizon') 64bit
Writing library             : libebml v1.3.1 + libmatroska v1.4.2

Video
ID                          : 1
Format                      : AVC
Format/Info                 : Advanced Video Codec
Format profile              : [email protected]
Format settings, CABAC      : Yes
Format settings, ReFrames   : 8 frames
Codec ID                    : V_MPEG4/ISO/AVC
Duration                    : 20 min 55 s
Bit rate                    : 951 kb/s
Width                       : 1 280 pixels
Height                      : 720 pixels
Display aspect ratio        : 16:9
Frame rate mode             : Constant
Frame rate                  : 23.976 (24000/1001) FPS
Color space                 : YUV
Chroma subsampling          : 4:2:0
Bit depth                   : 8 bits
Scan type                   : Progressive
Bits/(Pixel*Frame)          : 0.043
Stream size                 : 142 MiB (91%)
Writing library             : x264 core 148 r2705 3f5ed56
Encoding settings           : cabac=1 / ref=8 / deblock=1:0:0 / analyse=0x3:0x113 / me=umh / subme=9 / psy=1 / psy_rd=1.00:0.00 / mixed_ref=1 / me_range=24 / chroma_me=1 / trellis=1 / 8x8dct=1 / cqm=0 / deadzone=21,11 / fast_pskip=1 / chroma_qp_offset=-2 / threads=6 / lookahead_threads=1 / sliced_threads=0 / nr=0 / decimate=1 / interlaced=0 / bluray_compat=0 / constrained_intra=0 / bframes=5 / b_pyramid=2 / b_adapt=2 / b_bias=0 / direct=3 / weightb=1 / open_gop=0 / weightp=2 / keyint=240 / keyint_min=23 / scenecut=40 / intra_refresh=0 / rc_lookahead=60 / rc=crf / mbtree=1 / crf=25.0 / qcomp=0.60 / qpmin=0 / qpmax=69 / qpstep=4 / ip_ratio=1.40 / aq=2:1.00
Default                     : Yes
Forced                      : No

Audio
ID                          : 2
Format                      : AAC
Format/Info                 : Advanced Audio Codec
Format profile              : LC
Codec ID                    : A_AAC
Duration                    : 20 min 55 s
Bit rate                    : 96.0 kb/s
Channel(s)                  : 2 channels
Channel positions           : Front: L R
Sampling rate               : 48.0 kHz
Frame rate                  : 46.875 FPS (1024 spf)
Compression mode            : Lossy
Delay relative to video     : 9 ms
Stream size                 : 14.4 MiB (9%)
Language                    : English
Default                     : Yes
Forced                      : No

Text
ID                          : 3
Format                      : UTF-8
Codec ID                    : S_TEXT/UTF8
Codec ID/Info               : UTF-8 Plain Text
Duration                    : 20 min 20 s
Bit rate                    : 115 b/s
Count of elements           : 426
Stream size                 : 17.3 KiB (0%)
Language                    : English
Default                     : Yes
Forced                      : No
File Name: Size:
The.Big.Bang.Theory.S10E12.Holiday.Summation.720p.Web-DL.EN-Sub.x264-[MULVAcoded].mkv156.99 MB
TrackersSeedersLeechersCompleted
udp://tracker.coppersurfer.tk:6969/announce4,4251,23951,510
Torrent Hash: 1442C6246CEBC91B1EDF805ECABBCEC6CA04B344
Not Yet Rated (Log in to rate it)
No comments still posted

Related Torrents


Embed & Sharing


Login
Email:
Password:
[Signup]
[Recover Account]

Latest Forum

Author : Angelina
Subject :Ebook request thread V2
Last Replies :  Herowho
On : 2017-08-18 02:39:26

Author : cRAYz
Subject :Comic Book Request Thread V.4
Last Replies :  msn12
On : 2017-08-18 02:35:46

Author : Angelina
Subject :Music Request Thread
Last Replies :  miok
On : 2017-08-18 02:30:37

Author : Mr. Smith
Subject :World Wide Release/WWRG
Last Replies :  miok
On : 2017-08-18 02:28:03

Author : Midnight Rider
Subject :Midnight Riders Seed Box
Last Replies :  miok
On : 2017-08-18 02:24:51

Author : UnderTest
Subject :Adult Jokes Here!
Last Replies :  GodAndUlster
On : 2017-08-18 01:45:26

Author : Gear Shifter
Subject :Gear Shifter Sports Releases
Last Replies :  Gear Shifter
On : 2017-08-18 01:31:54

Author : Angelina
Subject :How to access WWT when ISP blo...
Last Replies :  QueenB
On : 2017-08-17 21:53:19

Author : Angelina
Subject :Creating File List from File N...
Last Replies :  QueenB
On : 2017-08-17 21:52:16

Author : Mafketel
Subject :How to create a .torrent file ...
Last Replies :  QueenB
On : 2017-08-17 21:51:45

Author : Angelina
Subject :Create Torrents On 6 Different...
Last Replies :  QueenB
On : 2017-08-17 21:50:56

Author : Angelina
Subject :Download in qBitTorrent with H...
Last Replies :  QueenB
On : 2017-08-17 21:49:32


Navigation


Blog

News

WWT Official Desk Top Background Version 3
Posted: 11-Aug-17

The Privateer Vol 01 issue 04
Posted: 10-Aug-17

WWT News And Updates Aug 2017
Posted: 30-Jul-17

WWT News and Updates July 2017
Posted: 02-Jul-17


Friendly Site