Torrent Details For "BBC Planet Earth II 5of6 Grasslands WebRip x264-MCTV"

Warning! Use a VPN When Downloading Torrents!
Your IP Address is . Location is
Your Internet Provider is tracking your torrent activity! Hide your IP ADDRESS with a VPN!
We strongly recommend using Trust.Zone VPN to anonymize your torrenting. It's FREE!
Get VPN Now for FREE!
BBC Planet Earth II 5of6 Grasslands WebRip x264-MCTV



Title: BBC Planet Earth II 5of6 Grasslands WebRip x264-MCTV
Category: TV > SD x264 x265
Uploader:

Uploaded by Mulva1989*1476

Seeders: 1688
Leechers: 59
Completed: 195392
Downloaded: 109
Size: 518.22 MB
Language: English English

BBC Planet Earth II 5of6 Grasslands WebRip x264-MCTV
http://www.bbc.co.uk/programmes/p02544td
Airdate : 4 Dec 2016

Planet Earth II - 5of6 Grasslands
Wildlife documentary series presented by David Attenborough. A look at survival in grasslands, from Asia's saiga antelope to the giant anteaters of Brazil.

English subtitles included

Screenshots
Click to enlarge





Format                      : MPEG-4
Format profile              : Base Media
Codec ID                    : isom (isom/avc1)
File size                   : 518 MiB
Duration                    : 58 min 9 s
Overall bit rate mode       : Variable
Overall bit rate            : 1 246 kb/s
Encoded date                : UTC 2016-12-04 22:43:48
Tagged date                 : UTC 2016-12-04 22:43:48

Video
ID                          : 1
Format                      : AVC
Format/Info                 : Advanced Video Codec
Format profile              : [email protected]
Format settings, CABAC      : Yes
Format settings, ReFrames   : 8 frames
Codec ID                    : avc1
Codec ID/Info               : Advanced Video Coding
Duration                    : 58 min 9 s
Bit rate                    : 1 146 kb/s
Maximum bit rate            : 5 782 kb/s
Width                       : 720 pixels
Height                      : 404 pixels
Display aspect ratio        : 16:9
Frame rate mode             : Constant
Frame rate                  : 25.000 FPS
Color space                 : YUV
Chroma subsampling          : 4:2:0
Bit depth                   : 8 bits
Scan type                   : Progressive
Bits/(Pixel*Frame)          : 0.158
Stream size                 : 477 MiB (92%)
Writing library             : x264 core 148 r2705 3f5ed56
Encoding settings           : cabac=1 / ref=8 / deblock=1:0:0 / analyse=0x3:0x113 / me=umh / subme=9 / psy=1 / psy_rd=1.00:0.00 / mixed_ref=1 / me_range=24 / chroma_me=1 / trellis=1 / 8x8dct=1 / cqm=0 / deadzone=21,11 / fast_pskip=1 / chroma_qp_offset=-2 / threads=6 / lookahead_threads=1 / sliced_threads=0 / nr=0 / decimate=1 / interlaced=0 / bluray_compat=0 / constrained_intra=0 / bframes=5 / b_pyramid=2 / b_adapt=2 / b_bias=0 / direct=3 / weightb=1 / open_gop=0 / weightp=2 / keyint=250 / keyint_min=25 / scenecut=40 / intra_refresh=0 / rc_lookahead=60 / rc=crf / mbtree=1 / crf=23.0 / qcomp=0.60 / qpmin=0 / qpmax=69 / qpstep=4 / ip_ratio=1.40 / aq=2:1.00
Encoded date                : UTC 2016-12-04 22:43:48
Tagged date                 : UTC 2016-12-04 22:44:00

Audio
ID                          : 2
Format                      : AAC
Format/Info                 : Advanced Audio Codec
Format profile              : LC
Codec ID                    : 40
Duration                    : 58 min 9 s
Bit rate mode               : Variable
Bit rate                    : 96.0 kb/s
Maximum bit rate            : 114 kb/s
Channel(s)                  : 2 channels
Channel positions           : Front: L R
Sampling rate               : 48.0 kHz
Frame rate                  : 46.875 FPS (1024 spf)
Compression mode            : Lossy
Stream size                 : 39.9 MiB (8%)
Title                       : BBC.Planet.Earth.II.5of6.Grasslands.WebRip.x264-MCTV.aac#audio - Imported with GPAC 0.5.0-rev
Encoded date                : UTC 2016-12-04 22:43:59
Tagged date                 : UTC 2016-12-04 22:44:00

Text
ID                          : 3
Format                      : Timed Text
Muxing mode                 : sbtl
Codec ID                    : tx3g
Duration                    : 57 min 34 s
Bit rate mode               : Variable
Bit rate                    : 48 b/s
Stream size                 : 20.1 KiB (0%)
Title                       : BBC.Planet.Earth.II.5of6.Grasslands.WebRip.x264-MCTV.srt:hdlr=sbtl:lang=en:group=2:layer=-1 - Imported with GPAC 0.5.0-rev
Language                    : English
Default                     : Yes
Forced                      : No
Alternate group             : 2
Encoded date                : UTC 2016-12-04 22:44:00
Tagged date                 : UTC 2016-12-04 22:44:00
File Name: Size:
BBC.Planet.Earth.II.5of6.Grasslands.WebRip.x264-MCTV.mp4518.16 MB
English.srt36.35 kB
MulvaCodedTV.jpg30.31 kB
TrackersSeedersLeechersCompleted
udp://tracker.coppersurfer.tk:6969/announce1,68859195,392
Torrent Hash: 91C0960E3B4E650FEBC1AAB12DB4259A8A9AA4C3
Not Yet Rated (Log in to rate it)
No comments still posted

Related Torrents

Torrents NameSizeSLAge
BBC Pointless S15E21
       0


by DumpTruck in Other > Unsorted
95.78 MB 0 0 53 wks ago
BBC Performance Live Kate Tempest WebRip x264-MCTV
       0


by Mulva1989 in TV > DVD
263.37 MB 51 14 34 wks ago
BBC Panorama Diabetes The Hidden Killer WebRip x264-MCTV
       0


by Mulva1989 in TV > DVD
255.70 MB 549 262 34 wks ago
BBC Panorama BHS How Did it Happen WebRip x264-MCTV
       0


by Mulva1989 in TV > DVD
136.68 MB 265 99 32 wks ago
BBC Panorama Paxman on Trump v Clinton Divided America WebRip x264-MCTV
       0


by Mulva1989 in TV > SD x264 x265
276.12 MB 532 93 31 wks ago

Embed & Sharing


Login
Email:
Password:
[Signup]
[Recover Account]

Latest Forum

Author : Beowulf
Subject :Delicious food worldwide.
Last Replies :  KATZ
On : 2017-05-29 22:19:37

Author : Deep61
Subject :Deep61's Soaps,TV,and E books
Last Replies :  Deep61
On : 2017-05-29 22:16:32

Author : cRAYz
Subject :Comic Book Request Thread V.4
Last Replies :  jakanapes
On : 2017-05-29 22:13:14

Author : Stewart
Subject :Gothic Horror Random Image Thr...
Last Replies :  KATZ
On : 2017-05-29 22:06:37

Author : Reaper
Subject :Steampunk
Last Replies :  KATZ
On : 2017-05-29 21:04:28

Author : cRAYz
Subject :Stupid Sign Thread
Last Replies :  Ouwetje
On : 2017-05-29 21:02:37

Author : Ouwetje
Subject :Black and White art or picture...
Last Replies :  Ouwetje
On : 2017-05-29 20:54:21

Author : Dundy
Subject :WorldWide Street art.
Last Replies :  Ouwetje
On : 2017-05-29 20:51:52

Author : Angelina
Subject :Say Hello & Goodbye
Last Replies :  miok
On : 2017-05-29 20:40:42

Author : Reaper
Subject :Historical Events
Last Replies :  KATZ
On : 2017-05-29 20:38:01

Author : Jazzy
Subject :Fantasy conceptual art
Last Replies :  KATZ
On : 2017-05-29 20:29:46


Navigation


Blog

News

WWT News And Updated May 2017
Posted: 28-Apr-17


Friendly Site


Poll


You must be logged in to view polls